Ссылка на приватное зеркало всего за 1$. Внимание количество ограничено!!!

OK

1+1

iTunes

мы

OK

1

WEB-DLRip

Джокер

Пифагор

Ведьмак / The Witcher сериал

Лицензия

ПШазам

ОК

Оно 2

iTunes

30
pack

Вам бонус

ВАЖНО

!!Акция!!

Alien_RageХит недели

RePack

Resident Evil 21

ИГРА 18+

pack

RePack

jed

!!Акция!!

Alien_Rage

RePack

fifa19

RePack

Assassins Creed: Odyssey

RePack

NEED FOR SPEED™ PAYBACK

4 сезон

9 сезон

Бесстыжие 9 сезон

Все сериалы

все сериалы на PB.wtf

RePack

FAR CRY 5
  

Столкновение / Interference (Линда Ди Франко) [2018, Драма, криминал, детектив, WEB-DL 720p] MVO ["Синема УС"] pb.wtf

Столкновение через торрент pb.wtf

Размер: 2.95 GB | Добавлен: 1 год назад | Торрент скачан:33 раза
Скачать  

22-12-2018 16:47 Столкновение Скачать торрент  

Столкновение / InterferenceГод выпуска: 2018
Страна: США
Жанр: Драма, криминал, детектив
Продолжительность: 01:23:03
Перевод: Любительский (многоголосый) | "Синема УС"
Субтитры: отсутствуют

Режиссер: Линда Ди Франко

rating

В ролях:

Том Уисдом, Виктория Габриэлль Платт, Брюс Томас, Джейн Тэйни, Кейлб Лонг, Леона Парамински, Лови Андервуд, Данте Палминтери, Дина Морроне, Роми Пак

Описание:

Уходящий в отставку детектив пытается установить личность наполовину сожженной женщины, найденной возле лодки окружного прокурора, который преследует серийного детоубийцу.

Качество: WEB-DL 720p
Формат: MKV

Видео: h.264,4 702 kb/s, 1280x536
Аудио#1: Русский, (AC3, 2 ch, 384 Кбит/с)
скриншот  скриншот  скриншот  

Общее
Уникальный идентификатор : 175379387600168135043483496054216379115 (0x83F0D7675999F1B6A2E9442D2E0ACAEB)
Полное имя : D:\Interference.2018.P.WEB-DL.72Op_KOSHARA.mkv
Формат : Matroska
Версия формата : Version 2
Размер файла : 2,95 Гбайт
Продолжительность : 1 ч. 23 м.
Режим общего битрейта : Переменный
Общий поток : 5087 Кбит/сек
Дата кодирования : UTC 2018-12-21 03:44:35
Программа кодирования : mkvmerge v8.3.0 ('Over the Horizon') 64bit
Библиотека кодирования : libebml v1.3.1 + libmatroska v1.4.2

Видео
Идентификатор : 1
Формат : AVC
Формат/Информация : Advanced Video Codec
Профиль формата : High@L4.1
Параметр CABAC формата : Да
Параметр RefFrames формата : 4 кадра
Идентификатор кодека : V_MPEG4/ISO/AVC
Продолжительность : 1 ч. 23 м.
Вид битрейта : Переменный
Битрейт : 4702 Кбит/сек
Максимальный битрейт : 5500 Кбит/сек
Ширина : 1280 пикселей
Высота : 536 пикселей
Соотношение сторон : 2,40:1
Режим частоты кадров : Постоянный
Частота кадров : 23,976 (24000/1001) кадра/сек
Стандарт вещания : Component
Цветовое пространство : YUV
Субдискретизация насыщенности : 4:2:0
Битовая глубина : 8 бит
Тип развёртки : Прогрессивная
Бит/(Пиксели*Кадры) : 0.280
Размер потока : 2,67 Гбайт (90%)
Default : Да
Forced : Нет
Цветовой диапазон : Limited
Основные цвета : BT.709
Характеристики трансфера : BT.709
Коэффициенты матрицы : BT.709

Аудио
Идентификатор : 2
Формат : AC-3
Формат/Информация : Audio Coding 3
Расширение режима : CM (complete main)
Параметр Endianness формата : Big
Идентификатор кодека : A_AC3
Продолжительность : 1 ч. 23 м.
Вид битрейта : Постоянный
Битрейт : 384 Кбит/сек
Каналы : 2 канала
Расположение каналов : Front: L R
Частота : 48,0 КГц
Частота кадров : 31,250 кадров/сек (1536 spf)
Метод сжатия : С потерями
Размер потока : 228 Мбайт (8%)
Default : Да
Forced : Нет

pb.wtf



Скачать Столкновение через торрент https://a.radikal.ru/a02/1812/4e/bd98b9a1ee79.jpg Скачать фильм Столкновение через торрент бесплантно в хорошем качестве Описание: Уходящий в отставку детектив пытается установить личность наполовину сожженной женщины, найденной возле лодки окружного ... 10 10 3
Торрент: Зарегистрирован [2018-12-22 16:47] · скачан: 33 раз
Статус: T временная
Размер: 2.95 GB
Как cкачать? Как скачать Столкновение через торрент | qTorrent

% Раздел Тема Автор DL S | L
T Фильмы (мультфильмы) cо спонсором показа (Новинки AVI/MKV) [ 1.37 GB ] Столкновение / Interference [2018 WEB-DLRip] MVO ["Синема УС"] bober100 Скачать
1 | 0

28-11-2019 20:33  

Отключить всю рекламу на сайте

    Дорогой пользователь! Огромная просьба, поблагодарите релизера, оцените раздачу и оставьте свои комментарий, если Вы скачали Столкновение через торрент бесплатно! Внесите свою лепту в развитие PiratBit!
    Комментировать посты могут только пользователи прошедшие не сложную регистрацию
    Показать сообщения:    

    Столкновение через торрент
    Скачать бесплатно Столкновение
    Столкновение скачать торрент
    Столкновение смотреть онлайн
    Cкачать фильм Столкновение бесплатно
    Столкновение скачать торрент в хорошем качестве
    Столкновение смотреть онлайн бесплатно в хорошем качестве


    Вы не можете начинать темы
    Вы не можете отвечать на сообщения
    Вы не можете редактировать свои сообщения
    Вы не можете удалять свои сообщения
    Вы не можете голосовать в опросах
    Вы не можете прикреплять файлы к сообщениям
    Вы можете скачивать файлы