Marvel's Avengers Deluxe Edition (супер цена) 159р. Внимание количество ограничено!!!

2 сезон

iTunes

iTunes

1

iTunes

iTunes

iTunes

WEBRip

iTunes

30
pack

Новость дня

ВАЖНО

!!Акция!!

Alien_RageХит недели

RePack

Horizon Zero Dawn

ИГРА 18+

pack

RePack

jed

!!Акция!!

Alien_Rage

RePack

fifa19

RePack

Assassins Creed: Odyssey

RePack

NEED FOR SPEED™ PAYBACK

4 сезон

9 сезон

Бесстыжие 9 сезон

Все сериалы

все сериалы на PB.wtf

RePack

FAR CRY 5
  

Бесконечное Рождество / Christmas Everlasting (Рон Оливер) [2018, Мелодрама, HDTVRip 720p] MVO [AlphaProject] pb.wtf

Бесконечное Рождество через торрент pb.wtf

Размер: 3.13 GB | Добавлен: 1 год 8 мес. назад | Торрент скачан:12 раз
Скачать  

22-12-2018 17:19 Бесконечное Рождество Скачать торрент  

Бесконечное Рождество / Christmas EverlastingГод выпуска: 2018
Страна: США
Жанр: Мелодрама
Продолжительность: 01:31:30
Перевод: Любительский (многоголосый) | AlphaProject
Субтитры: отсутствуют

Режиссер: Рон Оливер

rating

В ролях:

Татьяна Али, Джаида-Иман Бенджамин, Алек Фриман, Брианна Батлер, Леонард Батлер, Зоэ Кэллоуэй, Грейсон Чадвик, Келли Коллинз, Хосе Альфредо Фернандес, Ричард Гарнер

Описание:

На носу еще одно Рождество, и год упорной работы вот-вот окупится, когда после праздников Люси станет партнером в своей юридической фирме. Но из-за смерти Элис - старшей сестры с ограниченными возможностями, она вынуждена вернуться в их родной город. Люси готова вступить во владение имуществом сестры, но только та поставила одно условие: она должна прожить в городе 4 недели, или дом перейдет приюту для животных. И Элис оставляет работу, решаясь остаться в родном месте почти на месяц. Она теряется в догадках о причине такого условия, но постепенно все становится на свои места, когда со временем она окунается в давно забытую атмосферу.

Качество: HDTVRip 720p
Формат: MKV

Видео: h.264, 4 504 kb/s, 1280x720
Аудио: Русский, (AC3, 2 ch, 384 Кбит/с)
скриншот  скриншот  скриншот  

Общее
Уникальный идентификатор : 231285019273829893890384681506273794376 (0xADFFDFDAB1D16C749247EA02BFE49948)
Полное имя : D:\Christmas.everlasting.2O18.Pa.HDTV.72Op_KOSHARA.mkv
Формат : Matroska
Версия формата : Version 2
Размер файла : 3,13 Гбайт
Продолжительность : 1 ч. 31 м.
Режим общего битрейта : Переменный
Общий поток : 4890 Кбит/сек
Дата кодирования : UTC 2018-12-17 07:54:03
Программа кодирования : mkvmerge v8.3.0 ('Over the Horizon') 64bit
Библиотека кодирования : libebml v1.3.1 + libmatroska v1.4.2

Видео
Идентификатор : 1
Формат : AVC
Формат/Информация : Advanced Video Codec
Профиль формата : High@L4.1
Параметр CABAC формата : Да
Параметр RefFrames формата : 4 кадра
Идентификатор кодека : V_MPEG4/ISO/AVC
Продолжительность : 1 ч. 31 м.
Вид битрейта : Переменный
Битрейт : 4504 Кбит/сек
Максимальный битрейт : 5000 Кбит/сек
Ширина : 1280 пикселей
Высота : 720 пикселей
Соотношение сторон : 16:9
Режим частоты кадров : Постоянный
Частота кадров : 23,976 (24000/1001) кадра/сек
Стандарт вещания : Component
Цветовое пространство : YUV
Субдискретизация насыщенности : 4:2:0
Битовая глубина : 8 бит
Тип развёртки : Прогрессивная
Бит/(Пиксели*Кадры) : 0.200
Размер потока : 2,82 Гбайт (90%)
Default : Да
Forced : Нет
Цветовой диапазон : Limited
Основные цвета : BT.709
Характеристики трансфера : BT.709
Коэффициенты матрицы : BT.709

Аудио
Идентификатор : 2
Формат : AC-3
Формат/Информация : Audio Coding 3
Расширение режима : CM (complete main)
Параметр Endianness формата : Big
Идентификатор кодека : A_AC3
Продолжительность : 1 ч. 31 м.
Вид битрейта : Постоянный
Битрейт : 384 Кбит/сек
Каналы : 2 канала
Расположение каналов : Front: L R
Частота : 48,0 КГц
Частота кадров : 31,250 кадров/сек (1536 spf)
Метод сжатия : С потерями
Размер потока : 251 Мбайт (8%)
Default : Да
Forced : Нет

pb.wtf



Скачать Бесконечное Рождество через торрент http://img15.lostpic.net/2018/12/22/33902d25aedff40efda167cc9ced3fad.jpg Скачать фильм Бесконечное Рождество через торрент бесплантно в хорошем качестве Описание: На носу еще одно Рождество, и год упорной работы вот-вот окупится, когда после праздников Люси станет партнером в своей ... 10 10 3
Торрент: Зарегистрирован [2018-12-22 17:19] · скачан: 12 раз
Статус: T временная
Размер: 3.13 GB
Как cкачать? Как скачать Бесконечное Рождество через торрент | qTorrent

% Раздел Тема Автор DL S | L
T Фильмы (мультфильмы) cо спонсором показа (Новинки AVI/MKV) [ 1.37 GB ] Бесконечное Рождество / Christmas Everlasting [2018 Мело HDTVRip] MVO [AlphaProject] bober100 Скачать
1 | 0

28-11-2019 20:33  

Отключить всю рекламу на сайте

    Дорогой пользователь! Огромная просьба, поблагодарите релизера, оцените раздачу и оставьте свои комментарий, если Вы скачали Бесконечное Рождество через торрент бесплатно! Внесите свою лепту в развитие PiratBit!
    Комментировать посты могут только пользователи прошедшие не сложную регистрацию
    Показать сообщения:    

    Бесконечное Рождество через торрент
    Скачать бесплатно Бесконечное Рождество
    Бесконечное Рождество скачать торрент
    Бесконечное Рождество смотреть онлайн
    Cкачать фильм Бесконечное Рождество бесплатно
    Бесконечное Рождество скачать торрент в хорошем качестве
    Бесконечное Рождество смотреть онлайн бесплатно в хорошем качестве


    Вы не можете начинать темы
    Вы не можете отвечать на сообщения
    Вы не можете редактировать свои сообщения
    Вы не можете удалять свои сообщения
    Вы не можете голосовать в опросах
    Вы не можете прикреплять файлы к сообщениям
    Вы можете скачивать файлы