Ссылка на приватное зеркало всего за 1$. Внимание количество ограничено!!!

OK

1+1

iTunes

мы

OK

1

WEB-DLRip

Джокер

Пифагор

Ведьмак / The Witcher сериал

iTunes

ПШазам

ОК

Оно 2

iTunes

30
pack

Вам бонус

ВАЖНО

!!Акция!!

Alien_RageХит недели

RePack

Resident Evil 21

ИГРА 18+

pack

RePack

jed

RePack

fifa19

RePack

Assassins Creed: Odyssey

RePack

NEED FOR SPEED™ PAYBACK

4 сезон

9 сезон

Бесстыжие 9 сезон

Все сериалы

все сериалы на PB.wtf

RePack

FAR CRY 5
  

Война за реальность / A War Over Reality (Филип Гарднер) [2018, история, WEB-DL 720p] MVO ["Синема УС"] pb.wtf

Война за реальность через торрент pb.wtf

Размер: 2.66 GB | Добавлен: 1 год 1 мес. назад | Торрент скачан:67 раз
Скачать  

22-12-2018 17:33 Война за реальность Скачать торрент  

Война за реальность / A War Over RealityГод выпуска: 2018
Страна: США
Жанр: история
Продолжительность: 01:07:55
Перевод: Любительский (многоголосый) | "Синема УС"
Субтитры: отсутствуют

Режиссер: Филип Гарднер

rating

В ролях:

Пол Хьюз, Саймон Оливер

Описание:

Тысячи лет человек жил на этой планете без необходимости в электронных устройствах. Тогда смартфоны, планшеты и гаджеты ещё не управляли нами. Мы изучали природные циклы, перемещения стад, равновесие жизни. Мы знали, что нам есть, где нам найти еду и, в конце концов, как её выращивать. Теперь мы живем в искусственно созданном состоянии сна, которое контролирует каждый аспект нашей жизни. Большинство людей на планете не знают, как заниматься охотой и собирательством, самостоятельно лечиться, строить укрытие и даже общаться без смс-сообщений. Огромный скачок технологической эволюции за одно поколение разрушил то, что строилось тысячами поколений. В самое ближайшее время мы может столкнуться с чудовищными угрозами. Преступники, террористы и правительства — это только начало. Скоро мы столкнёмся с величайшей угрозой в истории человечества, ведь мы сами взращиваем монстра, который станет нашей погибелью. Добро пожаловать в ваше будущее.

Качество: WEB-DL 720p
Формат: MKV

Видео: h.264, 5 227 kb/s, 1280x720
Аудио#1: Русский, (AC3, 2 ch, 384 Кбит/с)
скриншот  скриншот  скриншот  

Общее
Уникальный идентификатор : 213812104228048241142785929744427173172 (0xA0DAB6A16AB0BE16BF9B83DC8116C534)
Полное имя : D:\A.War.over.Reality.2018.P.WEB-DL.72Op_KOSHARA.mkv
Формат : Matroska
Версия формата : Version 2
Размер файла : 2,66 Гбайт
Продолжительность : 1 ч. 7 м.
Режим общего битрейта : Переменный
Общий поток : 5613 Кбит/сек
Дата кодирования : UTC 2018-12-17 06:46:57
Программа кодирования : mkvmerge v8.3.0 ('Over the Horizon') 64bit
Библиотека кодирования : libebml v1.3.1 + libmatroska v1.4.2

Видео
Идентификатор : 1
Формат : AVC
Формат/Информация : Advanced Video Codec
Профиль формата : High@L4.1
Параметр CABAC формата : Да
Параметр RefFrames формата : 4 кадра
Идентификатор кодека : V_MPEG4/ISO/AVC
Продолжительность : 1 ч. 7 м.
Вид битрейта : Переменный
Битрейт : 5227 Кбит/сек
Максимальный битрейт : 6000 Кбит/сек
Ширина : 1280 пикселей
Высота : 720 пикселей
Соотношение сторон : 16:9
Режим частоты кадров : Постоянный
Частота кадров : 23,976 (24000/1001) кадра/сек
Стандарт вещания : Component
Цветовое пространство : YUV
Субдискретизация насыщенности : 4:2:0
Битовая глубина : 8 бит
Тип развёртки : Прогрессивная
Бит/(Пиксели*Кадры) : 0.232
Размер потока : 2,43 Гбайт (91%)
Default : Да
Forced : Нет
Цветовой диапазон : Limited
Основные цвета : BT.709
Характеристики трансфера : BT.709
Коэффициенты матрицы : BT.709

Аудио
Идентификатор : 2
Формат : AC-3
Формат/Информация : Audio Coding 3
Расширение режима : CM (complete main)
Параметр Endianness формата : Big
Идентификатор кодека : A_AC3
Продолжительность : 1 ч. 7 м.
Вид битрейта : Постоянный
Битрейт : 384 Кбит/сек
Каналы : 2 канала
Расположение каналов : Front: L R
Частота : 48,0 КГц
Частота кадров : 31,250 кадров/сек (1536 spf)
Метод сжатия : С потерями
Размер потока : 187 Мбайт (7%)
Default : Да
Forced : Нет

pb.wtf



Скачать Война за реальность через торрент https://b.radikal.ru/b41/1812/36/94064d89555a.jpg Скачать фильм Война за реальность через торрент бесплантно в хорошем качестве Описание: Тысячи лет человек жил на этой планете без необходимости в электронных устройствах. Тогда смартфоны, планшеты и гаджеты ещё не ... 10 10 4
Info! Золотая раздача, скачанное не засчитывается.
Торрент: Зарегистрирован [2018-12-22 17:33] · скачан: 67 раз
Статус: T временная
Размер: 2.66 GB
Как cкачать? Как скачать Война за реальность через торрент | qTorrent

% Раздел Тема Автор DL S | L
T Фильмы (мультфильмы) cо спонсором показа (Новинки AVI/MKV) [ 1.37 GB ] Война за реальность / A War Over Reality [2018 история WEB-DLRip] MVO ["Синема УС"] bober100 Скачать
1 | 0

28-11-2019 20:33  

Отключить всю рекламу на сайте

22-12-2018 18:00 Война за реальность Скачать торрент  

описание пугает...те кто дальше будут жить не думают об этом...или просто кино?pb.wtf



22-12-2018 21:19 Война за реальность Скачать торрент  

Прикольная документалка про наше будущее,интересная тема,рекомендую.pb.wtf



23-12-2018 01:10 Война за реальность Скачать торрент  

интересно будет глянуть, спасибоpb.wtf



    Дорогой пользователь! Огромная просьба, поблагодарите релизера, оцените раздачу и оставьте свои комментарий, если Вы скачали Война за реальность через торрент бесплатно! Внесите свою лепту в развитие PiratBit!
    Комментировать посты могут только пользователи прошедшие не сложную регистрацию
    Показать сообщения:    

    Война за реальность через торрент
    Скачать бесплатно Война за реальность
    Война за реальность скачать торрент
    Война за реальность смотреть онлайн
    Cкачать фильм Война за реальность бесплатно
    Война за реальность скачать торрент в хорошем качестве
    Война за реальность смотреть онлайн бесплатно в хорошем качестве


    Вы не можете начинать темы
    Вы не можете отвечать на сообщения
    Вы не можете редактировать свои сообщения
    Вы не можете удалять свои сообщения
    Вы не можете голосовать в опросах
    Вы не можете прикреплять файлы к сообщениям
    Вы можете скачивать файлы