Лицензия

MVO

1

1 сезон

Лицензия

Лицензия

13

MVO

1 сезон

Deluxe Edition

pack

Рекомендуем

30

Repack

ВАЖНО

ВАЖНО

Ghostwire

RePack

jed

RePack

fifa19

RePack

RDR2

RePack

NEED FOR SPEED™ PAYBACK

RePack

Кинопоиск HD

 Острые козырьки 6 сезон

6 сезон

FAR CRY 6

RePack

Лицензия

MVO

1

1 сезон

1 сезон

Лицензия

  

Смертельный тренинг / Серии: 1-4 из 4 (Наталия Микрюкова) [2018, Детектив, мелодрама, WEB-DLRip]

Смертельный тренинг через торрент pb.wtf

Размер: 2.27 GB | Добавлен: 3 года 9 мес. назад | Торрент скачан:73 раза
Смотреть онлайн Смертельный тренинг | Скачать   

22-12-2018 18:23 Смертельный тренинг Скачать торрент  

Смертельный тренингГод выпуска: 2018
Страна: Россия
Жанр: Детектив, мелодрама
Продолжительность: ~ 00:48:00 серия
Субтитры: отсутствуют

Режиссер: Наталия Микрюкова



В ролях:

Екатерина Копанова, Станислав Бондаренко, Григорий Зельцер, Илья Бледный, Александр Борисов, Катрин Асси, Анна Бударина, Константин Шелягин, Майя Вознесенская, Кира Кауфман, Юрий Ковалёв, Андрей Фролов, Дуклас Трухин, Юлия Довганишина, Константин Соколов, Сергей Холмогоров, Сергей Литвинов, Лора Резникова, Виталий Абдулов, Жанна Пугачёва

Описание:

Надя и Дима живут вместе, вот только ей кажется, что она почти замужем, а ему — что он почти свободен. В очередной раз возмутившись таким положением дел, Надя принимает неожиданное предложение поехать на модный психологический тренинг взамен заболевшей сотрудницы. Тренинг проходит в роскошном загородном отеле и неожиданно увлекает её: харизматичный ведущий Игорь Маруев превращает каждый сеанс в шоу, нечто среднее между исповедью и судом. Участники тренинга в восторге… но далее начинает происходить что-то зловещее и необъяснимое. Участники погибают при загадочных обстоятельствах. Первая смерть кажется несчастным случаем, вторая — жутким совпадением. Вскоре Наде становится понятно: кто-то намерен убить всех участников шоу Маруева.

Качество: WEB-DLRip
Формат: AVI

Видео: XviD, ~ 1600 Кбит/с, 720x400
Аудио: AC3, 2 ch, 192 Кбит/с
скриншот  скриншот  скриншот  скриншот  скриншот  

Общее
Полное имя : D:\Смертельный тренинг. 2018. WEB-DLRip. Files-x\01. Смертельный тренинг. 2018. WEB-DLRip. Files-x.avi
Формат : AVI
Формат/Информация : Audio Video Interleave
Размер файла : 575 Мбайт
Продолжительность : 44 м. 35 с.
Общий поток : 1802 Кбит/сек
Программа кодирования : VirtualDubMod 1.5.10.3 | www.virtualdub-fr.org || (build 2550/release)
Библиотека кодирования : VirtualDubMod build 2550/release

Видео
Идентификатор : 0
Формат : MPEG-4 Visual
Профиль формата : Advanced [email protected]
Параметр BVOP формата : 1
Параметр QPel формата : Нет
Параметр GMC формата : Без точки перехода
Параметр матрицы формата : Выборочная
Идентификатор кодека : XVID
Идентификатор кодека/Подсказка : XviD
Продолжительность : 44 м. 35 с.
Продолжительность оригинала : 8 м. 34 с.
Битрейт : 1640 Кбит/сек
Ширина : 720 пикселей
Высота : 400 пикселей
Соотношение сторон : 16:9
Частота кадров : 25,000 кадров/сек
Цветовое пространство : YUV
Субдискретизация насыщенности : 4:2:0
Битовая глубина : 8 бит
Тип развёртки : Прогрессивная
Метод сжатия : С потерями
Бит/(Пиксели*Кадры) : 0.228
Размер потока : 100 Мбайт (17%)
Библиотека кодирования : XviD 73

Аудио
Идентификатор : 1
Формат : AC-3
Формат/Информация : Audio Coding 3
Расширение режима : CM (complete main)
Параметр Endianness формата : Big
Идентификатор кодека : 2000
Продолжительность : 44 м. 35 с.
Продолжительность оригинала : 8 м. 34 с.
Вид битрейта : Постоянный
Битрейт : 192 Кбит/сек
Каналы : 2 канала
Расположение каналов : Front: L R
Частота : 48,0 КГц
Частота кадров : 31,250 кадров/сек (1536 spf)
Метод сжатия : С потерями
Размер потока : 11,8 Мбайт (2%)
Выравнивание : Разделение по промежуткам
Продолжительность промежутка : 40 мс. (1,00 видеокадр)
Время предзагрузки промежутка : 500 мс.

Когда раздача ведётся путём добавления новых серий, при каждом добавлении создётся новый торрент. Чтобы начать докачку новой серии, пользователям необходимо сделать следующее:
(1) остановить скачивание,
(2) удалить старый торрент у себя из клиента (старые серии удалять не надо),
(3) скачать новый торрент и запустить его у себя в клиенте вместо старого, при этом указать клиенту путь в старую папку, куда и должно происходить скачивание новых серий.
Ваш клиент при этом должен произвести хеширование (проверку) старой папки (если не производит сам - помогите ему сделать это), и будет докачивать только те серии, которых у вас ещё нет. Старые серии при этом не удаляются, а продолжают раздаваться!
Eсли вы уже удалили старые серии, то предотвратить повторную закачку старых серий можно, отжав галочку в соответсвующих местах при запуске нового торрента. По возможности, желательно не удалять старые серии как можно дольше, чтобы релизёр не столько продолжал раздавать старые серии, а смог сконцентрироваться на новых.



Скачать Смертельный тренинг через торрент https://i108.fastpic.ru/big/2018/1222/87/3c4c9a59e3690cdd17018fb56e37e887.jpg Скачать, смотреть онлайн Смертельный тренинг бесплантно в хорошем качестве Описание: Надя и Дима живут вместе, вот только ей кажется, что она почти замужем, а ему — что он почти свободен. В очередной раз ... 10 10 4
Торрент: Зарегистрирован [2018-12-22 21:10] · скачан: 73 раз
Статус: √ проверено
Размер: 2.27 GB
Как cкачать? Как скачать Смертельный тренинг через торрент | UTorrent

% Раздел Тема Автор DL S | L
Наши сериалы [ 2.33 GB ] Смертельный тренинг / Серии: 1-4 из 4 | | SATRip bober100 Скачать
1 | 0
Наши сериалы [ 2.38 GB ] Смертельный тренинг / Серии: 1-4 из 4 | | SATRip-AVC aleksan55 Скачать
1 | 0

28-11-2019 20:33  

Отключить вcю реклaмy на сайте

    Дорогой пользователь! Огромная просьба, поблагодарите релизера, оцените раздачу и оставьте свои комментарий, если Вы скачали Смертельный тренинг через торрент бесплатно!!
    Комментировать посты могут только пользователи прошедшие не сложную регистрацию
    Показать сообщения:    


    Смертельный тренинг через торрент
    Скачать бесплатно Смертельный тренинг
    Смертельный тренинг скачать торрент
    Смертельный тренинг смотреть онлайн
    Cкачать фильм Смертельный тренинг бесплатно
    Смертельный тренинг скачать торрент в хорошем качестве
    Смертельный тренинг смотреть онлайн бесплатно в хорошем качестве
    Вы не можете начинать темы
    Вы не можете отвечать на сообщения
    Вы не можете редактировать свои сообщения
    Вы не можете удалять свои сообщения
    Вы не можете голосовать в опросах
    Вы не можете прикреплять файлы к сообщениям
    Вы можете скачивать файлы