Ссылка на приватное зеркало нашего сайта всего за 1$. Внимание количество ограничено!!!

2 сезон

iTunes

1 сезон

1

2 сезон

2 сезон

iTunes

1 сезон

RePack

30

Ultimate

ВАЖНО

ИГРА 18+

pack

RePack

MK11
pack

Забери бонус

RePack

jed

!!Акция!!

Alien_Rage

RePack

fifa19

RePack

Assassins Creed: Odyssey

RePack

NEED FOR SPEED™ PAYBACK

4 сезон

9 сезон

Бесстыжие 9 сезон

Все сериалы

все сериалы на PB.wtf

RePack

FAR CRY 5
  

Просто Мария / Simplemente María (Серии 01-127 из 127) (Эдуардо Саид) [2015-2016, Мелодрама, драма, латиноамериканский, теленовелла, TVRip-AVC] [MVO] pb.wtf

Просто Мария через торрент pb.wtf

Размер: 59.42 GB | Добавлен: 1 год 11 мес. назад | Торрент скачан:9 раз
Скачать  

22-12-2018 18:56 Просто Мария Скачать торрент  

Просто Мария / Simplemente María Год выпуска: 2015-2016
Страна: Мексика
Жанр: Мелодрама, драма, латиноамериканский, теленовелла
Продолжительность: 127 x ~ 00:42:00
Перевод: Профессиональный (многоголосый)

Режиссер: Эдуардо Саид

В ролях: Клаудия Алварез, Хосе Рон, Арлет Теран, Фердинандо Валенсиа, Мишель Рамаклия, Ана Мартин, Эрик Диас, Сурия Вега

Описание: Мария Флорес оставила свой посёлок с целью найти себе работу в Мехико. В Мехико она устроилась горничной в частном доме. Алехандро Ривапаласио учится в медицинском институте и вскоре должен стать дипломированным специалистом. Встретив Марию Флорес, он потерял голову. Вскоре Мария узнает, что беременна. Испугавшись ответственности и под давлением семьи, Алехандро бросает Марию. Минули годы, Мария Флорес стала известным мексиканским модельером и открыла свою фабрику по производству одежды.

rating

Качество: TVRip-AVC
Формат: MKV
Видео кодек: AVC
Аудио кодек: AAC
Видео: MPEG-4 AVC, ~ 1300 Кбит/с, 1048х576
Аудио: ААС, 2 ch, 192 Кбит/с
Общее
Полное имя : T:\Просто Мария\Просто Мария (127).mp4
Формат : MPEG-4
Профиль формата : Base Media
Идентификатор кодека : isom (isom/iso2/avc1/mp41)
Размер файла : 500 Мбайт
Продолжительность : 47 м. 59 с.
Режим общего битрейта : Переменный
Общий поток : 1456 Кбит/сек
Программа кодирования : Lavf56.25.101

Видео
Идентификатор : 1
Формат : AVC
Формат/Информация : Advanced Video Codec
Профиль формата : High@L3.1
Настройки формата : CABAC / 4 Ref Frames
Параметр CABAC формата : Да
Параметр RefFrames формата : 4 кадра
Идентификатор кодека : avc1
Идентификатор кодека/Информация : Advanced Video Coding
Продолжительность : 47 м. 59 с.
Битрейт : 1298 Кбит/сек
Ширина : 1048 пикселей
Высота : 576 пикселей
Соотношение сторон : 16:9
Режим частоты кадров : Постоянный
Частота кадров : 25,000 кадров/сек
Цветовое пространство : YUV
Субдискретизация насыщенности : 4:2:0
Битовая глубина : 8 бит
Тип развёртки : Прогрессивная
Бит/(Пиксели*Кадры) : 0.086
Размер потока : 446 Мбайт (89%)
Библиотека кодирования : x264 core 142
Настройки программы : cabac=1 / ref=3 / deblock=1:0:0 / analyse=0x3:0x113 / me=hex / subme=7 / psy=1 / psy_rd=1.00:0.00 / mixed_ref=1 / me_range=16 / chroma_me=1 / trellis=1 / 8x8dct=1 / cqm=0 / deadzone=21,11 / fast_pskip=1 / chroma_qp_offset=-2 / threads=6 / lookahead_threads=1 / sliced_threads=0 / nr=0 / decimate=1 / interlaced=0 / bluray_compat=0 / constrained_intra=0 / bframes=3 / b_pyramid=2 / b_adapt=1 / b_bias=0 / direct=1 / weightb=1 / open_gop=0 / weightp=2 / keyint=25 / keyint_min=2 / scenecut=40 / intra_refresh=0 / rc_lookahead=25 / rc=2pass / mbtree=1 / bitrate=1298 / ratetol=1.0 / qcomp=0.60 / qpmin=0 / qpmax=69 / qpstep=4 / cplxblur=20.0 / qblur=0.5 / ip_ratio=1.40 / aq=1:1.00

Аудио
Идентификатор : 2
Формат : AAC
Формат/Информация : Advanced Audio Codec
Профиль формата : LC
Идентификатор кодека : mp4a-40-2
Продолжительность : 47 м. 59 с.
Duration_LastFrame : -4 мс.
Вид битрейта : Переменный
Битрейт : 152 Кбит/сек
Максимальный битрейт : 192 Кбит/сек
Каналы : 2 канала
Расположение каналов : Front: L R
Частота : 44,1 КГц
Частота кадров : 43,066 кадра/сек (1024 SPF)
Метод сжатия : С потерями
Размер потока : 52,1 Мбайт (10%)
Default : Да
AlternateGroup/String : 1
скриншот  скриншот  скриншот  
pb.wtf



Скачать Просто Мария через торрент https://i108.fastpic.ru/big/2018/1222/31/fbc03f91a118dce01041081cdf624431.jpg Скачать фильм Просто Мария через торрент бесплантно в хорошем качестве Описание: Мария Флорес оставила свой посёлок с целью найти себе работу в Мехико. В Мехико она устроилась горничной в частном доме. ... 5 10 1
Торрент: Зарегистрирован [2018-12-22 18:56] · скачан: 9 раз
Статус: √ проверено
Размер: 59.42 GB
Как cкачать? Как скачать Просто Мария через торрент | qTorrent

28-11-2019 20:33  

Отключить всю рекламу на сайте

23-12-2018 01:24 Просто Мария Скачать торрент  

ремейк что-ли?) имена правда другиеpb.wtf



23-12-2018 04:20 Просто Мария Скачать торрент  

tamburetko писал(а):

ремейк что-ли?) имена правда другие

pb.wtf



23-12-2018 08:02 Просто Мария Скачать торрент  

tamburetko писал(а):

ремейк что-ли?) имена правда другие

скачай посмотри и расскажешь потом pb.wtf



    Дорогой пользователь! Огромная просьба, поблагодарите релизера, оцените раздачу и оставьте свои комментарий, если Вы скачали Просто Мария через торрент бесплатно! Внесите свою лепту в развитие PiratBit!
    Комментировать посты могут только пользователи прошедшие не сложную регистрацию
    Показать сообщения:    

    Просто Мария через торрент
    Скачать бесплатно Просто Мария
    Просто Мария скачать торрент
    Просто Мария смотреть онлайн
    Cкачать фильм Просто Мария бесплатно
    Просто Мария скачать торрент в хорошем качестве
    Просто Мария смотреть онлайн бесплатно в хорошем качестве


    Вы не можете начинать темы
    Вы не можете отвечать на сообщения
    Вы не можете редактировать свои сообщения
    Вы не можете удалять свои сообщения
    Вы не можете голосовать в опросах
    Вы не можете прикреплять файлы к сообщениям
    Вы можете скачивать файлы