Ссылка на приватное зеркало всего за 1$. Внимание количество ограничено!!!

OK

1+1

iTunes

мы

OK

1

WEB-DLRip

Джокер

Пифагор

Ведьмак / The Witcher сериал

iTunes

ПШазам

ОК

Оно 2

iTunes

30
pack

Вам бонус

ВАЖНО

!!Акция!!

Alien_RageХит недели

RePack

Resident Evil 21

ИГРА 18+

pack

RePack

jed

RePack

fifa19

RePack

Assassins Creed: Odyssey

RePack

NEED FOR SPEED™ PAYBACK

4 сезон

9 сезон

Бесстыжие 9 сезон

Все сериалы

все сериалы на PB.wtf

RePack

FAR CRY 5
  

Положи бабушку в холодильник / Metti la nonna in freezer (Джанкарло Фонтана, Джузеппе Стаси) [2018, комедия, WEB-DL 720p] MVO ["Синема УС"] pb.wtf

Положи бабушку в холодильник через торрент pb.wtf

Размер: 3.56 GB | Добавлен: 1 год 1 мес. назад | Торрент скачан:100 раз
Скачать  

22-12-2018 19:07 Положи бабушку в холодильник Скачать торрент  

Положи бабушку в холодильник / Metti la nonna in freezer Год выпуска: 2018
Страна: Италия
Жанр: комедия
Продолжительность: 01:44:39
Перевод: Любительский (многоголосый) | "Синема УС"
Субтитры: отсутствуют

Режиссер: Джанкарло Фонтана, Джузеппе Стаси

rating

В ролях:

Фабио Де Луиджи, Мириам Леоне, Люсия Оконе, Марина Рокко, Франческо Ди Лива, Сьюзи Лауде, Карло Лука Де Руджиери, Маурицио Ломбарди, Эрос Паньи, Барбара Буше

Описание:

Не очень удачливый финансист Симоне влюбляется в ресторатора Клаудию. Дела у той идут неважно, так что основным источником её доходов является пенсия бабушки. Когда старушка умирает, парочка с помощью друзей разрабатывают план аферы, чтобы и дальше получать пенсию бабули.

Качество: WEB-DL 720p
Формат: MKV

Видео: h.264, 4 488 Кбит/с, 1280x536
Аудио: Русский, (AC3, 2 ch, 384 Кбит/с)
скриншот  скриншот  скриншот  

Общее
Уникальный идентификатор : 214933908122778363276294114946602719639 (0xA1B2C3D530D7FA258BCECE1E52135997)
Полное имя : D:\Mettilanonnainfreezer.2018.P.WEB_DL.72Op.mkv
Формат : Matroska
Версия формата : Version 2
Размер файла : 3,56 Гбайт
Продолжительность : 1 ч. 44 м.
Режим общего битрейта : Переменный
Общий поток : 4874 Кбит/сек
Дата кодирования : UTC 2018-12-22 17:08:10
Программа кодирования : mkvmerge v8.3.0 ('Over the Horizon') 64bit
Библиотека кодирования : libebml v1.3.1 + libmatroska v1.4.2

Видео
Идентификатор : 1
Формат : AVC
Формат/Информация : Advanced Video Codec
Профиль формата : High@L4.1
Параметр CABAC формата : Да
Параметр RefFrames формата : 4 кадра
Идентификатор кодека : V_MPEG4/ISO/AVC
Продолжительность : 1 ч. 44 м.
Вид битрейта : Переменный
Битрейт : 4488 Кбит/сек
Максимальный битрейт : 5000 Кбит/сек
Ширина : 1280 пикселей
Высота : 536 пикселей
Соотношение сторон : 2,40:1
Режим частоты кадров : Постоянный
Частота кадров : 23,976 (24000/1001) кадра/сек
Стандарт вещания : Component
Цветовое пространство : YUV
Субдискретизация насыщенности : 4:2:0
Битовая глубина : 8 бит
Тип развёртки : Прогрессивная
Бит/(Пиксели*Кадры) : 0.267
Размер потока : 3,21 Гбайт (90%)
Default : Да
Forced : Нет
Цветовой диапазон : Limited
Основные цвета : BT.709
Характеристики трансфера : BT.709
Коэффициенты матрицы : BT.709

Аудио
Идентификатор : 2
Формат : AC-3
Формат/Информация : Audio Coding 3
Расширение режима : CM (complete main)
Параметр Endianness формата : Big
Идентификатор кодека : A_AC3
Продолжительность : 1 ч. 44 м.
Вид битрейта : Постоянный
Битрейт : 384 Кбит/сек
Каналы : 2 канала
Расположение каналов : Front: L R
Частота : 48,0 КГц
Частота кадров : 31,250 кадров/сек (1536 spf)
Метод сжатия : С потерями
Размер потока : 287 Мбайт (8%)
Default : Да
Forced : Нет

pb.wtf



Скачать Положи бабушку в холодильник через торрент https://b.radikal.ru/b23/1812/76/6f62c29f2384.jpg Скачать фильм Положи бабушку в холодильник через торрент бесплантно в хорошем качестве Описание: Не очень удачливый финансист Симоне влюбляется в ресторатора Клаудию. Дела у той идут неважно, так что основным источником её ... 10 10 3
Info! Золотая раздача, скачанное не засчитывается.
Торрент: Зарегистрирован [2018-12-22 19:07] · скачан: 100 раз
Статус: T временная
Размер: 3.56 GB
Как cкачать? Как скачать Положи бабушку в холодильник через торрент | qTorrent

% Раздел Тема Автор DL S | L
T Фильмы (мультфильмы) cо спонсором показа (Новинки AVI/MKV) [ 1.37 GB ] Положи бабушку в холодильник / Metti la nonna in freezer [2018 WEB-DLRip] MVO ["Синема УС"] bober100 Скачать
1 | 0

28-11-2019 20:33  

Отключить всю рекламу на сайте

    Дорогой пользователь! Огромная просьба, поблагодарите релизера, оцените раздачу и оставьте свои комментарий, если Вы скачали Положи бабушку в холодильник через торрент бесплатно! Внесите свою лепту в развитие PiratBit!
    Комментировать посты могут только пользователи прошедшие не сложную регистрацию
    Показать сообщения:    

    Положи бабушку в холодильник через торрент
    Скачать бесплатно Положи бабушку в холодильник
    Положи бабушку в холодильник скачать торрент
    Положи бабушку в холодильник смотреть онлайн
    Cкачать фильм Положи бабушку в холодильник бесплатно
    Положи бабушку в холодильник скачать торрент в хорошем качестве
    Положи бабушку в холодильник смотреть онлайн бесплатно в хорошем качестве


    Вы не можете начинать темы
    Вы не можете отвечать на сообщения
    Вы не можете редактировать свои сообщения
    Вы не можете удалять свои сообщения
    Вы не можете голосовать в опросах
    Вы не можете прикреплять файлы к сообщениям
    Вы можете скачивать файлы