Ссылка на приватное зеркало всего за 1$. Внимание количество ограничено!!!

iTunes

iTunes

iTunes

1

iTunes

iTunes

iTunes

WEBRip

iTunes

30
pack

$ от Little Big

ВАЖНО

!!Акция!!

Alien_RageХит недели

RePack

Resident Evil 21

ИГРА 18+

pack

RePack

jed

!!Акция!!

Alien_Rage

RePack

fifa19

RePack

Assassins Creed: Odyssey

RePack

NEED FOR SPEED™ PAYBACK

4 сезон

9 сезон

Бесстыжие 9 сезон

Все сериалы

все сериалы на PB.wtf

RePack

FAR CRY 5
  

Тень былых побед / Shadow Fighter (Элин Дарне) [2018, драма, WEB-DL 720p] MVO ["Синема УС"] pb.wtf

Тень былых побед через торрент pb.wtf

Размер: 3.77 GB | Добавлен: 1 год 7 мес. назад | Торрент скачан:21 раз
Скачать  

22-12-2018 19:25 Тень былых побед Скачать торрент  

Тень былых побед / Shadow FighterГод выпуска: 2018
Страна: США
Жанр: драма
Продолжительность: 01:41:39
Перевод: Любительский (многоголосый) | "Синема УС"
Субтитры: отсутствуют

Режиссер: Элин Дарне

rating

В ролях:

Стив Дарон, Берт Рейнолдс, Омар Брансон, Кристина Фигарола, Майкл Кристофер Родни, Чейз Виктория, Шана Передес, Иззи Мартинес, Мигель Суарес, Митч Лемос

Описание:

Тяжело переживающий смерть брата подросток Рэджи случайно знакомится с бездомным, в прошлом известным боксёром и претендентом на титул чемпиона мира. Вместе им предстоит пережить множество невзгод, столкнуться с неизвестностью, но прежде всего, победить призраков прошлого, преследующих каждого из них.

Качество: WEB-DL 720p
Формат: MKV

Видео: h.264, 4 929 kb/s, 1280x536
Аудио#1: Русский, (AC3, 2 ch, 384 Кбит/с)
скриншот  скриншот  скриншот  

Общее
Уникальный идентификатор : 192807804978674973548815942972283437202 (0x910D6EB91B41104B9A5D4FF8161E4092)
Полное имя : D:\Shadow.Fighter.2018.P.WEB-DL.72Op_KOSHARA.mkv
Формат : Matroska
Версия формата : Version 2
Размер файла : 3,77 Гбайт
Продолжительность : 1 ч. 41 м.
Режим общего битрейта : Переменный
Общий поток : 5315 Кбит/сек
Дата кодирования : UTC 2018-12-22 15:55:44
Программа кодирования : mkvmerge v8.3.0 ('Over the Horizon') 64bit
Библиотека кодирования : libebml v1.3.1 + libmatroska v1.4.2

Видео
Идентификатор : 1
Формат : AVC
Формат/Информация : Advanced Video Codec
Профиль формата : High@L4.1
Параметр CABAC формата : Да
Параметр RefFrames формата : 4 кадра
Идентификатор кодека : V_MPEG4/ISO/AVC
Продолжительность : 1 ч. 41 м.
Вид битрейта : Переменный
Битрейт : 4929 Кбит/сек
Максимальный битрейт : 5500 Кбит/сек
Ширина : 1280 пикселей
Высота : 536 пикселей
Соотношение сторон : 2,40:1
Режим частоты кадров : Постоянный
Частота кадров : 23,976 (24000/1001) кадра/сек
Стандарт вещания : Component
Цветовое пространство : YUV
Субдискретизация насыщенности : 4:2:0
Битовая глубина : 8 бит
Тип развёртки : Прогрессивная
Бит/(Пиксели*Кадры) : 0.293
Размер потока : 3,43 Гбайт (91%)
Default : Да
Forced : Нет
Цветовой диапазон : Limited
Основные цвета : BT.709
Характеристики трансфера : BT.709
Коэффициенты матрицы : BT.709

Аудио
Идентификатор : 2
Формат : AC-3
Формат/Информация : Audio Coding 3
Расширение режима : CM (complete main)
Параметр Endianness формата : Big
Идентификатор кодека : A_AC3
Продолжительность : 1 ч. 41 м.
Вид битрейта : Постоянный
Битрейт : 384 Кбит/сек
Каналы : 2 канала
Расположение каналов : Front: L R
Частота : 48,0 КГц
Частота кадров : 31,250 кадров/сек (1536 spf)
Метод сжатия : С потерями
Размер потока : 279 Мбайт (7%)
Default : Да
Forced : Нет

pb.wtf



Скачать Тень былых побед через торрент https://d.radikal.ru/d39/1812/5f/9bd2e0ddb97c.jpg Скачать фильм Тень былых побед через торрент бесплантно в хорошем качестве Описание: Тяжело переживающий смерть брата подросток Рэджи случайно знакомится с бездомным, в прошлом известным боксёром и претендентом на ... 10 10 2
Торрент: Зарегистрирован [2018-12-22 19:25] · скачан: 21 раз
Статус: T временная
Размер: 3.77 GB
Как cкачать? Как скачать Тень былых побед через торрент | qTorrent

% Раздел Тема Автор DL S | L
T Фильмы (мультфильмы) cо спонсором показа (Новинки AVI/MKV) [ 1.37 GB ] Тень былых побед / Shadow Fighter [2018 WEB-DLRip] MVO ["Синема УС"] bober100 Скачать
1 | 0

28-11-2019 20:33  

Отключить всю рекламу на сайте

    Дорогой пользователь! Огромная просьба, поблагодарите релизера, оцените раздачу и оставьте свои комментарий, если Вы скачали Тень былых побед через торрент бесплатно! Внесите свою лепту в развитие PiratBit!
    Комментировать посты могут только пользователи прошедшие не сложную регистрацию
    Показать сообщения:    

    Тень былых побед через торрент
    Скачать бесплатно Тень былых побед
    Тень былых побед скачать торрент
    Тень былых побед смотреть онлайн
    Cкачать фильм Тень былых побед бесплатно
    Тень былых побед скачать торрент в хорошем качестве
    Тень былых побед смотреть онлайн бесплатно в хорошем качестве


    Вы не можете начинать темы
    Вы не можете отвечать на сообщения
    Вы не можете редактировать свои сообщения
    Вы не можете удалять свои сообщения
    Вы не можете голосовать в опросах
    Вы не можете прикреплять файлы к сообщениям
    Вы можете скачивать файлы