Ссылка на приватное зеркало нашего сайта всего за 1$. Внимание количество ограничено!!!

2 сезон

iTunes

1 сезон

1

iTunes

iTunes

iTunes

1 сезон

RePack

30

ИГРА 18+

pack

ВАЖНО

!!Акция!!

Alien_RageХит недели

RePack

MK11
pack

Забери бонус

RePack

jed

!!Акция!!

Alien_Rage

RePack

fifa19

RePack

Assassins Creed: Odyssey

RePack

NEED FOR SPEED™ PAYBACK

4 сезон

9 сезон

Бесстыжие 9 сезон

Все сериалы

все сериалы на PB.wtf

RePack

FAR CRY 5
  

Седьмая руна / Сезон: 1 / Серии: 1-8 из 8 (Сергей Попов (II) [2015, Детектив, мистика, SATRip] pb.wtf

Седьмая руна через торрент pb.wtf

Размер: 4.69 GB | Добавлен: 1 год 9 мес. назад | Торрент скачан:109 раз
Скачать  

22-12-2018 20:17 Седьмая руна Скачать торрент  

Седьмая руна Год выпуска: 2015
Страна: Россия
Жанр: Детектив, мистика
Продолжительность: ~ 00:48:00 серия
Перевод: Не требуется
Субтитры: Иврит (вшитые)

Режиссер: Сергей Попов (II)

rating

В ролях:

Юрий Колокольников, Агния Кузнецова, Юлия Снигирь, Виктор Сухоруков, Роман Мадянов, Дарья Екамасова, Юрий Цурило, Дмитрий Куличков, Сергей Маркеев, Александр Нестеров (III), Сергей Федоров (VI), Евгения Осипова, Станислав Мухамадеев, Дмитрий Ульянов, Олег Чугунов, Андрей Марусин, Артём Лощилин, Наум Швец, Арсений Кудряшов

Описание:

В городе Н-ск при загадочных обстоятельствах погибает дочь губернатора. Для выяснения обстоятельств её смерти в город Н-ск из Москвы приезжает следователь Олег Нестеров. В том месте, где нашли тело девушки, проходила ролевая игра по карело-финскому эпосу «Калевала», и председатель ролевиков Вера параллельно начинает свое расследование. Однако новые жертвы и серия загадочных событий все больше запутывают Олега и Веру. А вскоре Нестеров понимает, что в Н-ске играют не только ролевики. И банкир, и прокурор, и губернатор вовлечены в некую странную азартную игру, смысл которой скрыт от непосвященных.

Качество: SATRip
Формат: AVI

Видео: XviD, 1560 Кбит/с, 720x400
Аудио: AC3, 2 ch, 192 Кбит/с
скриншот  скриншот  скриншот  скриншот  

General
Complete name : Y:\раздачи\Седьмая руна.2015.SATRip.Files-x\01.Седьмая руна.2015.SATRip.Files-x.avi
Format : AVI
Format/Info : Audio Video Interleave
File size : 601 MiB
Duration : 47mn 4s
Overall bit rate : 1 784 Kbps
Writing application : Lavf53.19.0

Video
ID : 0
Format : MPEG-4 Visual
Format profile : Advanced Simple@L5
Format settings, BVOP : 1
Format settings, QPel : No
Format settings, GMC : No warppoints
Format settings, Matrix : Custom
Codec ID : XVID
Codec ID/Hint : XviD
Duration : 47mn 4s
Bit rate : 1 581 Kbps
Width : 720 pixels
Height : 400 pixels
Display aspect ratio : 16:9
Frame rate : 25.000 fps
Color space : YUV
Chroma subsampling : 4:2:0
Bit depth : 8 bits
Scan type : Progressive
Compression mode : Lossy
Bits/(Pixel*Frame) : 0.220
Stream size : 532 MiB (89%)
Writing library : XviD 73

Audio
ID : 1
Format : AC-3
Format/Info : Audio Coding 3
Mode extension : CM (complete main)
Format settings, Endianness : Big
Codec ID : 2000
Duration : 47mn 4s
Bit rate mode : Constant
Bit rate : 192 Kbps
Channel(s) : 2 channels
Channel positions : Front: L R
Sampling rate : 48.0 KHz
Bit depth : 16 bits
Compression mode : Lossy
Stream size : 64.7 MiB (11%)
Alignment : Aligned on interleaves
Interleave, duration : 32 ms (0.80 video frame)

pb.wtf



Скачать Седьмая руна через торрент http://pic.kartinco.top/images/11/e1tag.jpg Скачать фильм Седьмая руна через торрент бесплантно в хорошем качестве Описание: В городе Н-ск при загадочных обстоятельствах погибает дочь губернатора. Для выяснения обстоятельств её смерти в город Н-ск из ... 8.7 10 7
Торрент: Зарегистрирован [2018-12-22 20:17] · скачан: 109 раз
Статус: √ проверено
Размер: 4.69 GB
Как cкачать? Как скачать Седьмая руна через торрент | qTorrent

% Раздел Тема Автор DL S | L
Наши сериалы [ 5.27 GB ] Седьмая руна / Сезон: 1 / Серии: 1-8 из 8 [2015 IPTVRip] lug30 Скачать
1 | 0

28-11-2019 20:33  

Отключить всю рекламу на сайте

    Дорогой пользователь! Огромная просьба, поблагодарите релизера, оцените раздачу и оставьте свои комментарий, если Вы скачали Седьмая руна через торрент бесплатно! Внесите свою лепту в развитие PiratBit!
    Комментировать посты могут только пользователи прошедшие не сложную регистрацию
    Показать сообщения:    

    Седьмая руна через торрент
    Скачать бесплатно Седьмая руна
    Седьмая руна скачать торрент
    Седьмая руна смотреть онлайн
    Cкачать фильм Седьмая руна бесплатно
    Седьмая руна скачать торрент в хорошем качестве
    Седьмая руна смотреть онлайн бесплатно в хорошем качестве


    Вы не можете начинать темы
    Вы не можете отвечать на сообщения
    Вы не можете редактировать свои сообщения
    Вы не можете удалять свои сообщения
    Вы не можете голосовать в опросах
    Вы не можете прикреплять файлы к сообщениям
    Вы можете скачивать файлы