Ссылка на приватное зеркало нашего сайта всего за 1$. Внимание количество ограничено!!!

2 сезон

iTunes

1 сезон

1

2 сезон

2 сезон

iTunes

1 сезон

RePack

30

Ultimate

ВАЖНО

ИГРА 18+

pack

RePack

MK11
pack

Забери бонус

RePack

jed

!!Акция!!

Alien_Rage

RePack

fifa19

RePack

Assassins Creed: Odyssey

RePack

NEED FOR SPEED™ PAYBACK

4 сезон

9 сезон

Бесстыжие 9 сезон

Все сериалы

все сериалы на PB.wtf

RePack

FAR CRY 5
  

Расскажи мне сказку / Tell Me a Story / Сезон: 1 / Серии: 1-10 из 10 (Лиз Фридлендер) [2018, Триллер, WEB-DL 720p] MVO [Jaskier] pb.wtf

Расскажи мне сказку через торрент pb.wtf

Размер: 11.23 GB | Добавлен: 1 год 10 мес. назад | Торрент скачан:60 раз
Скачать  

22-12-2018 20:29 Расскажи мне сказку Скачать торрент  

Расскажи мне сказку / Tell Me a Story

Год выпуска: 2018
Страна: США
Жанр: Триллер
Продолжительность: ~ 00:45:00
Перевод: Профессиональный (многоголосый закадровый) | Jaskier [без цензуры]

Режиссёр: Лиз Фридлендер

В ролях:

Пол Уэсли, Джеймс Волк, Крис Брошу, Остин Роберт Батлер, Даниэль Кэмпбелл, Дави Сантос, Ким Кэтролл, Забрина Гевара, Сэм Джагер, Стерлинг Найт, Билли Магнуссен, Джеймс Маслоу, Дориан Миссик

Описание:

Психологический триллер «Расскажи мне сказку» — это современное переосмысление знаменитых историй, которые всем помнят с детства. «Три поросенка», «Джек и бобовый стебель» и «Красная шапочка» рассказываются в сериале на новый лад и трансформируются в мрачный и запутанный сюжет о любви, расставании, жадности, мести и убийстве.

rating

Качество: WEB-DL 720p
Формат: MKV

Видео: 1280x720 (16:9) | X264 | ~2628 kbps | 24.000 fps
Аудио 1: AC3, 48,0 КГц, 6 ch, 384 kbps - [RUS]
Аудио 2: AC3, 48,0 КГц, 6 ch, 384 kbps - [ENG]


Реклама: Присутствует звуковая (два раза в начале и конце по 10 сек.)
Переведено и озвучено: студией Jaskier
Общее
Уникальный идентификатор                 : 167277046782316602070818196079601489439 (0x7DD86328C2221D29DDCB1E260EDB961F)
Полное имя                               : G:\Jaskier\Tell.Me.a.Story Season 1 (WEB-DL l 720p l Jaskier)\Tell.Me.a.Story.S01E01.WEB-DL.720p.Jaskier.mkv
Формат                                   : Matroska
Версия формата                           : Version 4 / Version 2
Размер файла                             : 1,21 Гбайт
Продолжительность                        : 50 м. 55 с.
Общий поток                              : 3398 Кбит/сек
Дата кодирования                         : UTC 2018-12-15 13:36:24
Программа кодирования                    : mkvmerge v28.0.0 ('Voice In My Head') 64-bit
Библиотека кодирования                   : libebml v1.3.6 + libmatroska v1.4.9

Видео
Идентификатор                            : 1
Формат                                   : AVC
Формат/Информация                        : Advanced Video Codec
Профиль формата                          : High@L3.1
Настройки формата                        : CABAC / 5 Ref Frames
Параметр CABAC формата                   : Да
Параметр RefFrames формата               : 5 кадров
Идентификатор кодека                     : V_MPEG4/ISO/AVC
Продолжительность                        : 50 м. 55 с.
Битрейт                                  : 2628 Кбит/сек
Ширина                                   : 1280 пикселей
Высота                                   : 720 пикселей
Соотношение сторон                       : 16:9
Режим частоты кадров                     : Постоянный
Частота кадров                           : 24,000 кадра/сек
Цветовое пространство                    : YUV
Субдискретизация насыщенности            : 4:2:0
Битовая глубина                          : 8 бит
Тип развёртки                            : Прогрессивная
Бит/(Пиксели*Кадры)                      : 0.119
Размер потока                            : 957 Мбайт (77%)
Default                                  : Да
Forced                                   : Нет
Цветовой диапазон                        : Limited
Основные цвета                           : BT.709
Характеристики трансфера                 : BT.709
Коэффициенты матрицы                     : BT.709

Аудио #1
Идентификатор                            : 2
Формат                                   : AC-3
Формат/Информация                        : Audio Coding 3
Идентификатор кодека                     : A_AC3
Продолжительность                        : 50 м. 55 с.
Вид битрейта                             : Постоянный
Битрейт                                  : 384 Кбит/сек
Каналы                                   : 6 каналов
Расположение каналов                     : Front: L C R, Side: L R, LFE
Частота                                  : 48,0 КГц
Частота кадров                           : 31,250 кадров/сек (1536 SPF)
Битовая глубина                          : 16 бит
Метод сжатия                             : С потерями
Размер потока                            : 140 Мбайт (11%)
Язык                                     : Russian
ServiceKind/String                       : Complete Main
Default                                  : Да
Forced                                   : Нет

Аудио #2
Идентификатор                            : 3
Формат                                   : AC-3
Формат/Информация                        : Audio Coding 3
Идентификатор кодека                     : A_AC3
Продолжительность                        : 50 м. 55 с.
Вид битрейта                             : Постоянный
Битрейт                                  : 384 Кбит/сек
Каналы                                   : 6 каналов
Расположение каналов                     : Front: L C R, Side: L R, LFE
Частота                                  : 48,0 КГц
Частота кадров                           : 31,250 кадров/сек (1536 SPF)
Битовая глубина                          : 16 бит
Метод сжатия                             : С потерями
Размер потока                            : 140 Мбайт (11%)
Язык                                     : English
ServiceKind/String                       : Complete Main
Default                                  : Нет
Forced                                   : Нет
скриншот  скриншот  скриншот  
Когда раздача ведётся путём добавления новых серий, при каждом добавлении создётся новый торрент. Чтобы начать докачку новой серии, пользователям необходимо сделать следующее:
(1) остановить скачивание,
(2) удалить старый торрент у себя из клиента (старые серии удалять не надо),
(3) скачать новый торрент и запустить его у себя в клиенте вместо старого, при этом указать клиенту путь в старую папку, куда и должно происходить скачивание новых серий.
Ваш клиент при этом должен произвести хеширование (проверку) старой папки (если не производит сам - помогите ему сделать это), и будет докачивать только те серии, которых у вас ещё нет. Старые серии при этом не удаляются, а продолжают раздаваться!
Eсли вы уже удалили старые серии, то предотвратить повторную закачку старых серий можно, отжав галочку в соответсвующих местах при запуске нового торрента. По возможности, желательно не удалять старые серии как можно дольше, чтобы релизёр не столько продолжал раздавать старые серии, а смог сконцентрироваться на новых.
pb.wtf



Скачать Расскажи мне сказку через торрент https://i106.fastpic.ru/big/2018/1215/a7/f5a11db31c8aa71b90795ad58b7062a7.png Скачать фильм Расскажи мне сказку через торрент бесплантно в хорошем качестве Описание: Психологический триллер «Расскажи мне сказку» — это современное переосмысление знаменитых историй, которые всем помнят с детства. ... 9 10 9
Торрент: Зарегистрирован [2019-01-13 08:27] · скачан: 60 раз
Статус: √ проверено
Размер: 11.23 GB
Как cкачать? Как скачать Расскажи мне сказку через торрент | qTorrent

% Раздел Тема Автор DL S | L
Зарубежные сериалы [ 16.91 GB ] Расскажи мне сказку / Tell Me a Story / Сезон: 2 / Серии: 1-10 из 10 [2019 WEB-DL 720p] 3xMVO bober100 Скачать
1 | 0
Зарубежные сериалы [ 8.6 GB ] Расскажи мне сказку / Tell Me a Story / Сезон: 2 / Серии: 1-10 из 10 [2019 WEB-DLRip] MVO [TVShows] bober100 Скачать
1 | 0
Зарубежные сериалы [ 15.13 GB ] Расскажи мне сказку / Tell Me a Story / Сезон: 2 / Серии: 1-10 из 10 [2019 WEB-DL 720p] MVO [TVShows] bober100 Скачать
1 | 0
Зарубежные сериалы [ 27.89 GB ] Расскажи мне сказку / Tell Me a Story / Сезон: 2 / Серии: 1-10 из 10 [2019 WEB-DL 1080p] MVO [TVShows] bober100 Скачать
1 | 0
Зарубежные сериалы [ 26.74 GB ] Расскажи мне сказку / Tell Me a Story / Сезон: 2 / Серии: 1-10 из 10 [2019 WEB-DL 1080p] MVO [Jaskier] bober100 Скачать
1 | 0
Зарубежные сериалы [ 13.45 GB ] Расскажи мне сказку / Tell Me a Story / Сезон: 2 / Серии: 1-10 из 10 [2019 WEB-DL 720p] MVO [Jaskier] bober100 Скачать
1 | 0
Зарубежные сериалы [ 6 GB ] Расскажи мне сказку / Tell Me a Story / Сезон: 2 / Серии: 1-10 из 10 [2019 WEB-DLRip] MVO [Jaskier] bober100 Скачать
1 | 0

28-11-2019 20:33  

Отключить всю рекламу на сайте

    Дорогой пользователь! Огромная просьба, поблагодарите релизера, оцените раздачу и оставьте свои комментарий, если Вы скачали Расскажи мне сказку через торрент бесплатно! Внесите свою лепту в развитие PiratBit!
    Комментировать посты могут только пользователи прошедшие не сложную регистрацию
    Показать сообщения:    

    Расскажи мне сказку через торрент
    Скачать бесплатно Расскажи мне сказку
    Расскажи мне сказку скачать торрент
    Расскажи мне сказку смотреть онлайн
    Cкачать фильм Расскажи мне сказку бесплатно
    Расскажи мне сказку скачать торрент в хорошем качестве
    Расскажи мне сказку смотреть онлайн бесплатно в хорошем качестве


    Вы не можете начинать темы
    Вы не можете отвечать на сообщения
    Вы не можете редактировать свои сообщения
    Вы не можете удалять свои сообщения
    Вы не можете голосовать в опросах
    Вы не можете прикреплять файлы к сообщениям
    Вы можете скачивать файлы