2 сезон

iTunes

MVO

1

2 сезон

iTunes

iTunes

1 сезон

RePack

30

Новинка

ВАЖНО

ИГРА 18+

pack

RePack

MK11
pack

Легкие деньги

RePack

jed

RePack

fifa19

RePack

RDR2

RePack

NEED FOR SPEED™ PAYBACK

4 сезон

9 сезон

Бесстыжие 9 сезон

Все сериалы

все сериалы на PB.wtf

RePack

FAR CRY 5

Anonymous, добрый вечер, мы не успеваем собрать деньги на оплату серверов за декабрь и январь, помогите нам пожалуйста в это трудное время. В качестве благодарности мы отключим Вам всю рекламу на сайте (укажите свой ник в строку Ваше имя)!

×
  
Magnet ссылка

Свидетель обвинения / Witness for the Prosecution (Билли Уайлдер) [1957, драма, криминал, детектив, триллер, BDRip 1080p by msltel] MVO, VO pb.wtf

Свидетель обвинения через торрент pb.wtf

Размер: 13.43 GB | Добавлен: 2 года 1 мес. назад | Торрент скачан:3 раза
Скачать  

23-12-2018 06:57 Свидетель обвинения Скачать торрент  

Название: Свидетель обвинения
Оригинальное название: Witness for the Prosecution
Год выпуска: 1957
Страна: США
Жанр: драма, криминал, детектив, триллер
Продолжительность: 01:56:32
Перевод: закадровый многоголосый, закадровый одноголосый

Режиссер: Билли Уайлдер
В ролях: Тайрон Пауэр, Марлен Дитрих, Чарльз Лотон, Эльза Ланчестер, Джон Уильямс (II), Генри Дэниелл, Йен Вульф, Торин Тэтчер, Норма Варден, Уна О`Коннор

О фильме: Сэр Уилфрид Робартс — великолепный адвокат. В связи с тяжёлой болезнью врачи запрещают ему заниматься уголовными делами. Однако его заинтересовывает весьма скользкое и практически безнадёжное дело Леонарда Воула. Леонард Воул является единственным подозреваемым в убийстве пожилой и довольно обеспеченной дамы Эмили Френч. В силу того, что Леонард был довольно близким другом той самой дамы, и поскольку она была одинока, все её наследство, согласно недавно исправленному ею завещанию, переходило Леонарду Воулу. Это завещание ещё более усложняло положение стороны защиты, так как оно могло бы послужить мотивом для убийства. Единственной свидетельницей на стороне защиты Воула могла бы выступить его жена — Кристина Воул, из чего следует, что перспектива на оправдательный вердикт выглядит крайне туманно. Сэр Уилфрид, невзирая на наставления врачей, берётся за это щепетильное дело... Википедия. Экранизация одноимённой пьесы Агаты Кристи.



Качество: BDRip 1080p
Формат: MKV
Видео: MPEG-4 AVC, 14.6 Mбит/с, 1794x1080
Аудио 1: русский, AC3, 192 kbps, 2 ch, 48 kHz [закадровый многоголосый, Film-Prestige]
Аудио 2: русский, AC3, 192 kbps, 2 ch, 48 kHz [закадровый одноголосый]
Аудио 3: английский, DTS, 1509 kbps, 2 ch, 48 kHz [оригинал]
Субтитры 1: русские
Субтитры 2: английские
Общее
Уникальный идентификатор : 225039937382221333868227529069107117669 (0xA94D1D8B6D70D58D9FF79A022E647E65)
Полное имя : D:\Video\Свидетель обвинения.1957.BDRip 1080p by msltel.mkv
Формат : Matroska
Версия формата : Version 4
Размер файла : 13,4 Гбайт
Продолжительность : 1 ч. 56 м.
Общий поток : 16,5 Мбит/сек
Название фильма : Rip by msltel
Дата кодирования : UTC 2018-12-22 16:32:03
Программа кодирования : mkvmerge v8.2.0 ('World of Adventure') 64bit
Библиотека кодирования : libebml v1.3.1 + libmatroska v1.4.2

Видео
Идентификатор : 1
Формат : AVC
Формат/Информация : Advanced Video Codec
Профиль формата : High@L4.1
Настройки формата : CABAC / 4 Ref Frames
Параметр CABAC формата : Да
Параметр RefFrames формата : 4 кадра
Идентификатор кодека : V_MPEG4/ISO/AVC
Продолжительность : 1 ч. 56 м.
Битрейт : 14,6 Мбит/сек
Ширина : 1794 пикселя
Высота : 1080 пикселей
Соотношение сторон : 5:3
Режим частоты кадров : Постоянный
Частота кадров : 23,976 (24000/1001) кадра/сек
Цветовое пространство : YUV
Субдискретизация насыщенности : 4:2:0
Битовая глубина : 8 бит
Тип развёртки : Прогрессивная
Бит/(Пиксели*Кадры) : 0.314
Размер потока : 11,9 Гбайт (89%)
Библиотека кодирования : x264 core 157 r2935 545de2f
Настройки программы : cabac=1 / ref=4 / deblock=1:-2:-2 / analyse=0x3:0x113 / me=umh / subme=11 / psy=1 / psy_rd=1.00:0.15 / mixed_ref=1 / me_range=32 / chroma_me=1 / trellis=2 / 8x8dct=1 / cqm=0 / deadzone=21,11 / fast_pskip=0 / chroma_qp_offset=-3 / threads=6 / lookahead_threads=1 / sliced_threads=0 / nr=0 / decimate=1 / interlaced=0 / bluray_compat=0 / constrained_intra=0 / bframes=11 / b_pyramid=2 / b_adapt=2 / b_bias=0 / direct=1 / weightb=1 / open_gop=0 / weightp=2 / keyint=230 / keyint_min=23 / scenecut=40 / intra_refresh=0 / rc_lookahead=40 / rc=crf / mbtree=0 / crf=18.8 / qcomp=0.60 / qpmin=0 / qpmax=69 / qpstep=4 / vbv_maxrate=62500 / vbv_bufsize=78125 / crf_max=0.0 / nal_hrd=none / filler=0 / ip_ratio=1.40 / pb_ratio=1.30 / aq=1:1.00
Язык : English
Default : Да
Forced : Нет

Аудио #1
Идентификатор : 2
Формат : AC-3
Формат/Информация : Audio Coding 3
Коммерческое название : Dolby Digital
Идентификатор кодека : A_AC3
Продолжительность : 1 ч. 56 м.
Вид битрейта : Постоянный
Битрейт : 192 Кбит/сек
Каналы : 2 канала
Channel layout : L R
Частота : 48,0 КГц
Частота кадров : 31,250 кадров/сек (1536 SPF)
Битовая глубина : 16 бит
Метод сжатия : С потерями
Размер потока : 160 Мбайт (1%)
Заголовок : MVO Film-Prestige
Язык : Russian
ServiceKind/String : Complete Main
Default : Да
Forced : Нет

Аудио #2
Идентификатор : 3
Формат : AC-3
Формат/Информация : Audio Coding 3
Коммерческое название : Dolby Digital
Идентификатор кодека : A_AC3
Продолжительность : 1 ч. 56 м.
Вид битрейта : Постоянный
Битрейт : 192 Кбит/сек
Каналы : 2 канала
Channel layout : L R
Частота : 48,0 КГц
Частота кадров : 31,250 кадров/сек (1536 SPF)
Битовая глубина : 16 бит
Метод сжатия : С потерями
Размер потока : 160 Мбайт (1%)
Заголовок : VO
Язык : Russian
ServiceKind/String : Complete Main
Default : Нет
Forced : Нет

Аудио #3
Идентификатор : 4
Формат : DTS
Формат/Информация : Digital Theater Systems
Идентификатор кодека : A_DTS
Продолжительность : 1 ч. 56 м.
Вид битрейта : Постоянный
Битрейт : 1509 Кбит/сек
Каналы : 2 канала
Channel layout : L R
Частота : 48,0 КГц
Частота кадров : 93,750 кадра/сек (512 SPF)
Битовая глубина : 16 бит
Метод сжатия : С потерями
Размер потока : 1,23 Гбайт (9%)
Заголовок : original
Язык : English
Default : Нет
Forced : Нет

Текст #1
Идентификатор : 5
Формат : UTF-8
Идентификатор кодека : S_TEXT/UTF8
Идентификатор кодека/Информация : UTF-8 Plain Text
Продолжительность : 1 ч. 55 м.
Битрейт : 159 бит/сек
ElementCount : 2253
Размер потока : 136 Кбайт (0%)
Заголовок : русские
Язык : Russian
Default : Нет
Forced : Нет

Текст #2
Идентификатор : 6
Формат : UTF-8
Идентификатор кодека : S_TEXT/UTF8
Идентификатор кодека/Информация : UTF-8 Plain Text
Продолжительность : 1 ч. 55 м.
Битрейт : 94 бит/сек
ElementCount : 1593
Размер потока : 80,5 Кбайт (0%)
Заголовок : английские
Язык : English
Default : Нет
Forced : Нет
pb.wtf



Скачать Свидетель обвинения через торрент https://c.radikal.ru/c29/1812/4e/cc3f71c90959.jpg Скачать фильм Свидетель обвинения через торрент бесплантно в хорошем качестве О фильме: Сэр Уилфрид Робартс — великолепный адвокат. В связи с тяжёлой болезнью врачи запрещают ему заниматься уголовными делами. Однако ... 5 10 1
Info! Золотая раздача, скачанное не засчитывается.
Торрент: Зарегистрирован [2018-12-23 06:57] · скачан: 3 раз
Статус: √ проверено
Размер: 13.43 GB
Как cкачать? Как скачать Свидетель обвинения через торрент | UTorrent

% Раздел Тема Автор DL S | L
Зарубежные сериалы [ 8.9 GB ] Свидетель обвинения / The Witness for the Prosecution / Сезон: 1 / Серии: 1-2 из 2 [2016 BDRip 1080p] MVO [SDI Media] bober100 Скачать
1 | 0
Фильмы [HD 720p, 1080p] (Хороший звук DUB, MVO) [ 4.95 GB ] Свидетель обвинения / Witness for the Prosecution [1957 BDRip 720p by msltel] MVO VO msltel Скачать
1 | 0

28-11-2019 20:33  

Отключить всю рекламу на сайте

    Дорогой пользователь! Огромная просьба, поблагодарите релизера, оцените раздачу и оставьте свои комментарий, если Вы скачали Свидетель обвинения через торрент бесплатно! Внесите свою лепту в развитие PiratBit!
    Комментировать посты могут только пользователи прошедшие не сложную регистрацию
    Показать сообщения:    

    Свидетель обвинения через торрент
    Скачать бесплатно Свидетель обвинения
    Свидетель обвинения скачать торрент
    Свидетель обвинения смотреть онлайн
    Cкачать фильм Свидетель обвинения бесплатно
    Свидетель обвинения скачать торрент в хорошем качестве
    Свидетель обвинения смотреть онлайн бесплатно в хорошем качестве


    Вы не можете начинать темы
    Вы не можете отвечать на сообщения
    Вы не можете редактировать свои сообщения
    Вы не можете удалять свои сообщения
    Вы не можете голосовать в опросах
    Вы не можете прикреплять файлы к сообщениям
    Вы можете скачивать файлы