Ссылка на приватное зеркало нашего сайта всего за 1$. Внимание количество ограничено!!!

2 сезон

iTunes

1 сезон

1

2 сезон

2 сезон

iTunes

1 сезон

RePack

30

Новинка

ВАЖНО

ИГРА 18+

pack

RePack

MK11
pack

Забери бонус

RePack

jed

!!Акция!!

Alien_Rage

RePack

fifa19

RePack

Assassins Creed: Odyssey

RePack

NEED FOR SPEED™ PAYBACK

4 сезон

9 сезон

Бесстыжие 9 сезон

Все сериалы

все сериалы на PB.wtf

RePack

FAR CRY 5
  

Обвиняемый / Presunto culpable / Сезон: 1 / Серии: 1-13 из 13 (Менна Фите, Альберто Руис Рохо) [2018, триллер, WEB-DL 1080p] DVO [ViruseProject] pb.wtf

Обвиняемый через торрент pb.wtf

Размер: 21.5 GB | Добавлен: 1 год 11 мес. назад | Торрент скачан:19 раз
Скачать  

23-12-2018 13:05 Обвиняемый Скачать торрент  

Обвиняемый / Presunto culpable

Год выпуска: 2018
Страна: Испания
Жанр: триллер
Продолжительность: ~01:10:00
Перевод: Любительский (двухголосый закадровый) ViruseProject
Субтитры: русские

Режиссёр: Менна Фите, Альберто Руис Рохо

В ролях:

Мигель Анхель Муньос, Алехандра Оньева, Суси Санчес, Карлос Серрано и др.

Описание:

Йон Аристеги, ученый, живет в Париже и уже 6 лет не появляется в родном посёлке, после исчезновения своей девушки. Семейные обстоятельства вынуждают его вернуться в рыбацкий поселок в Стране Басков, где случилось это страшное событие, тайна которого вскоре будет раскрыта.

Качество: WEB-DL 1080p
Формат: MKV

Видео: 1 920 x 1 080 (16:9), 3 300 kb/s, 25.000 FPS, 8 bits
Аудио Rus: 48.0 kHz, AC3, 2 channels, 192 kb/s
Аудио Spa: 48.0 kHz, AC3, 2 channels, 192 kb/s


Реклама: В аудио в начале и конце по 12 секунд.

rating
Внимание! Раздача ведётся путём добавления новых серий; при каждом добавлении создаётся новый торрент. Чтобы начать докачку новой серии, пользователям необходимо сделать следующее:
(1) остановить скачивание,
(2) удалить старый торрент у себя из клиента (старые серии удалять не надо),
(3) скачать новый торрент и запустить его у себя в клиенте вместо старого, при этом указать клиенту путь в старую папку куда и должно происходить скачивание новых серий.

Ваш клиент при этом должен произвести хеширование (проверку) старой папки (если не производит сам - помогите ему сделать это), и будет докачивать только те серии которых у вас ещё нет. Старые серии при этом не удаляются, а продолжают раздаваться!

Eсли вы уже удалили старые серии, то предотвратить повторную закачку старых серий можно, отжав галочку в соответствующих местах при запуске нового торрента. По возможности, желательно не удалять старые серии как можно дольше чтобы релизёр не столько продолжал раздавать старые серии, а смог сконцентрироваться на новых.
General
Unique ID : 181797269280527581791961302469186165802 (0x88C4E16694DE86A28B7526108BA81C2A)
Complete name : Presunto.culpable.S01E01.1080p.WEB-DL.ViruseProject.mkv
Format : Matroska
Format version : Version 4 / Version 2
File size : 1.69 GiB
Duration : 1 h 7 min
Overall bit rate : 3 586 kb/s
Encoded date : UTC 2018-11-10 05:56:00
Writing application : mkvmerge v8.3.0 ('Over the Horizon') 64bit
Writing library : libebml v1.3.1 + libmatroska v1.4.2

Video
ID : 1
Format : AVC
Format/Info : Advanced Video Codec
Format profile : High@L4
Format settings, CABAC : Yes
Format settings, ReFrames : 5 frames
Codec ID : V_MPEG4/ISO/AVC
Duration : 1 h 7 min
Bit rate : 3 237 kb/s
Width : 1 920 pixels
Height : 1 080 pixels
Display aspect ratio : 16:9
Frame rate mode : Constant
Frame rate : 25.000 FPS
Color space : YUV
Chroma subsampling : 4:2:0
Bit depth : 8 bits
Scan type : Progressive
Bits/(Pixel*Frame) : 0.062
Stream size : 1.51 GiB (89%)
Writing library : x264 core 152 r19 ba24899
Encoding settings : cabac=1 / ref=5 / deblock=1:0:0 / analyse=0x3:0x113 / me=umh / subme=7 / psy=1 / psy_rd=1.00:0.00 / mixed_ref=1 / me_range=31 / chroma_me=1 / trellis=1 / 8x8dct=1 / cqm=0 / deadzone=21,11 / fast_pskip=1 / chroma_qp_offset=-2 / threads=34 / lookahead_threads=5 / sliced_threads=0 / nr=0 / decimate=1 / interlaced=0 / bluray_compat=0 / constrained_intra=0 / bframes=3 / b_pyramid=2 / b_adapt=1 / b_bias=0 / direct=1 / weightb=1 / open_gop=0 / weightp=2 / keyint=100 / keyint_min=50 / scenecut=0 / intra_refresh=0 / rc_lookahead=50 / rc=2pass / mbtree=1 / bitrate=3237 / ratetol=1.0 / qcomp=0.60 / qpmin=0 / qpmax=69 / qpstep=4 / cplxblur=20.0 / qblur=0.5 / vbv_maxrate=3560 / vbv_bufsize=3237 / nal_hrd=none / filler=0 / ip_ratio=1.40 / aq=1:1.00
Language : Spanish
Default : Yes
Forced : No

Audio #1
ID : 2
Format : AC-3
Format/Info : Audio Coding 3
Format settings, Endianness : Big
Codec ID : A_AC3
Duration : 1 h 7 min
Bit rate mode : Constant
Bit rate : 192 kb/s
Channel(s) : 2 channels
Channel positions : Front: L R
Sampling rate : 48.0 kHz
Frame rate : 31.250 FPS (1536 spf)
Bit depth : 16 bits
Compression mode : Lossy
Stream size : 92.7 MiB (5%)
Title : ViruseProject
Language : Russian
Service kind : Complete Main
Default : Yes
Forced : No

Audio #2
ID : 3
Format : AC-3
Format/Info : Audio Coding 3
Format settings, Endianness : Big
Codec ID : A_AC3
Duration : 1 h 7 min
Bit rate mode : Constant
Bit rate : 192 kb/s
Channel(s) : 2 channels
Channel positions : Front: L R
Sampling rate : 48.0 kHz
Frame rate : 31.250 FPS (1536 spf)
Bit depth : 16 bits
Compression mode : Lossy
Stream size : 92.7 MiB (5%)
Language : Spanish
Service kind : Complete Main
Default : No
Forced : No

Text
ID : 4
Format : UTF-8
Codec ID : S_TEXT/UTF8
Codec ID/Info : UTF-8 Plain Text
Duration : 1 h 6 min
Bit rate : 71 b/s
Count of elements : 614
Stream size : 34.7 KiB (0%)
Title : ViruseProject
Language : Russian
Default : No
Forced : No
скриншот  скриншот  скриншот  скриншот  
pb.wtf



Скачать Обвиняемый через торрент http://i98.fastpic.ru/big/2018/1110/7a/8d034dbe91926a159f4aa0e390562c7a.jpg Скачать фильм Обвиняемый через торрент бесплантно в хорошем качестве Описание: Йон Аристеги, ученый, живет в Париже и уже 6 лет не появляется в родном посёлке, после исчезновения своей девушки. Семейные ... 10 10 2
Торрент: Зарегистрирован [2018-12-23 13:05] · скачан: 19 раз
Статус: √ проверено
Размер: 21.5 GB
Как cкачать? Как скачать Обвиняемый через торрент | qTorrent

% Раздел Тема Автор DL S | L
Зарубежные сериалы [ 63.81 GB ] Обвиняемый / Presunto culpable / Сезон: 1 / Серии: 1-13 из 13 [2018 WEB-DL 1080p] DVO [IVI] bober100 Скачать
1 | 0

28-11-2019 20:33  

Отключить всю рекламу на сайте

    Дорогой пользователь! Огромная просьба, поблагодарите релизера, оцените раздачу и оставьте свои комментарий, если Вы скачали Обвиняемый через торрент бесплатно! Внесите свою лепту в развитие PiratBit!
    Комментировать посты могут только пользователи прошедшие не сложную регистрацию
    Показать сообщения:    

    Обвиняемый через торрент
    Скачать бесплатно Обвиняемый
    Обвиняемый скачать торрент
    Обвиняемый смотреть онлайн
    Cкачать фильм Обвиняемый бесплатно
    Обвиняемый скачать торрент в хорошем качестве
    Обвиняемый смотреть онлайн бесплатно в хорошем качестве


    Вы не можете начинать темы
    Вы не можете отвечать на сообщения
    Вы не можете редактировать свои сообщения
    Вы не можете удалять свои сообщения
    Вы не можете голосовать в опросах
    Вы не можете прикреплять файлы к сообщениям
    Вы можете скачивать файлы