Ссылка на приватное зеркало нашего сайта всего за 1$. Внимание количество ограничено!!!

2 сезон

iTunes

1 сезон

1

2 сезон

2 сезон

iTunes

1 сезон

RePack

30

Ultimate

ВАЖНО

ИГРА 18+

pack

RePack

MK11
pack

Забери бонус

RePack

jed

!!Акция!!

Alien_Rage

RePack

fifa19

RePack

Assassins Creed: Odyssey

RePack

NEED FOR SPEED™ PAYBACK

4 сезон

9 сезон

Бесстыжие 9 сезон

Все сериалы

все сериалы на PB.wtf

RePack

FAR CRY 5
  

Заточенные кепки / Острые козырьки / Peaky Blinders / Сезон: 4 / Серии: 1-6 из 6 (Отто Баферст, Том Харпер) [2017, Драма, BDRip 1080p] MVO [LostFilm] pb.wtf

Заточенные кепки через торрент pb.wtf

Размер: 25 GB | Добавлен: 1 год 11 мес. назад | Торрент скачан:104 раза
Скачать  

23-12-2018 13:15 Заточенные кепки Скачать торрент  

Заточенные кепки / Острые козырьки / Peaky Blinders Год выпуска: 2017
Страна: Великобритания
Жанр: Драма
Продолжительность: ~ 00:55:00
Перевод: Профессиональный (многоголосый) | LostFilm
Субтитры: Русские, английские

Режиссер: Отто Баферст, Том Харпер

rating

В ролях:

Киллиан Мёрфи, Пол Андерсон, Иддо Голдберг, Хелен МакКрори, Сэм Нилл, Аннабелль Уоллис, Джо Коул, Элфи Эванс-Мис, Джек Хартли, Кевин Меткалф, Ли Болтон, Эрик Кэмпбелл, Нед Деннехи, Тони Питтс, Джеффри Постлтуэйт, Софи Рандл, Джеймс Брайхэн

Описание:

Британский сериал о криминальном мире Бирмингема 20-х годов прошлого века, в котором многолюдная семья Шелби стала одной из самых жестоких и влиятельных гангстерских банд послевоенного времени. Фирменным знаком группировки, промышлявшей грабежами и азартными играми, стали зашитые в козырьки лезвия.

Качество: BDRip 1080p | Без заставки и логотипа LostFilm.
Формат: MKV

Видео: 1920x1040 at 23.976 fps, AVC, ~9200 kbps avg
Аудио#1: Russian: 48 kHz, AC3, 2 ch, ~384 kbps avg |Многоголосый закадровый, LostFilm|
Аудио#2: English: 48 kHz, AC3, 6 ch, ~640 kbps avg
скриншот  скриншот  скриншот  скриншот  скриншот  

Общее
Уникальный идентификатор : 70485658886805117404238875037516544385 (0x35070B4ACAEF373DB18E1CF85AD1B981)
Полное имя : D:\Peaky.Blinders.s04.1080p.LostFilm\Peaky.Blinders.s04e01.BDRip.1080p.LostFilm.mkv
Формат : Matroska
Версия формата : Version 4 / Version 2
Размер файла : 4,17 Гбайт
Продолжительность : 57 м. 54 с.
Общий поток : 10,3 Мбит/сек
Дата кодирования : UTC 2018-12-23 08:37:38
Программа кодирования : mkvmerge v29.0.0 ('Like It Or Not') 64-bit
Библиотека кодирования : libebml v1.3.6 + libmatroska v1.4.9

Видео
Идентификатор : 1
Формат : AVC
Формат/Информация : Advanced Video Codec
Профиль формата : High@L4.1
Настройки формата : CABAC / 4 Ref Frames
Параметр CABAC формата : Да
Параметр RefFrames формата : 4 кадра
Идентификатор кодека : V_MPEG4/ISO/AVC
Продолжительность : 57 м. 54 с.
Битрейт : 9296 Кбит/сек
Ширина : 1920 пикселей
Высота : 1040 пикселей
Соотношение сторон : 1,85:1
Режим частоты кадров : Постоянный
Частота кадров : 25,000 кадров/сек
Цветовое пространство : YUV
Субдискретизация насыщенности : 4:2:0
Битовая глубина : 8 бит
Тип развёртки : Прогрессивная
Бит/(Пиксели*Кадры) : 0.186
Размер потока : 3,76 Гбайт (90%)
Библиотека кодирования : x264 core 155 r2893 b00bcaf
Настройки программы : cabac=1 / ref=4 / deblock=1:-3:-3 / analyse=0x3:0x113 / me=umh / subme=8 / psy=1 / psy_rd=1.00:0.00 / mixed_ref=1 / me_range=16 / chroma_me=1 / trellis=1 / 8x8dct=1 / cqm=0 / deadzone=21,11 / fast_pskip=1 / chroma_qp_offset=-2 / threads=24 / lookahead_threads=4 / sliced_threads=0 / nr=0 / decimate=1 / interlaced=0 / bluray_compat=0 / constrained_intra=0 / bframes=3 / b_pyramid=2 / b_adapt=2 / b_bias=0 / direct=3 / weightb=1 / open_gop=0 / weightp=2 / keyint=250 / keyint_min=25 / scenecut=40 / intra_refresh=0 / rc_lookahead=50 / rc=2pass / mbtree=1 / bitrate=9296 / ratetol=1.0 / qcomp=0.60 / qpmin=0 / qpmax=69 / qpstep=4 / cplxblur=20.0 / qblur=0.5 / ip_ratio=1.40 / aq=3:0.80
Default : Да
Forced : Нет

Аудио #1
Идентификатор : 2
Формат : AC-3
Формат/Информация : Audio Coding 3
Коммерческое название : Dolby Digital
Идентификатор кодека : A_AC3
Продолжительность : 57 м. 47 с.
Вид битрейта : Постоянный
Битрейт : 384 Кбит/сек
Каналы : 2 канала
Channel layout : L R
Частота : 48,0 КГц
Частота кадров : 31,250 кадров/сек (1536 SPF)
Битовая глубина : 16 бит
Метод сжатия : С потерями
Размер потока : 159 Мбайт (4%)
Заголовок : LostFilm
Язык : Russian
ServiceKind/String : Complete Main
Default : Да
Forced : Нет

Аудио #2
Идентификатор : 3
Формат : AC-3
Формат/Информация : Audio Coding 3
Коммерческое название : Dolby Digital
Идентификатор кодека : A_AC3
Продолжительность : 57 м. 54 с.
Вид битрейта : Постоянный
Битрейт : 640 Кбит/сек
Каналы : 6 каналов
Channel layout : L R C LFE Ls Rs
Частота : 48,0 КГц
Частота кадров : 31,250 кадров/сек (1536 SPF)
Битовая глубина : 16 бит
Метод сжатия : С потерями
Размер потока : 265 Мбайт (6%)
Язык : English
ServiceKind/String : Complete Main
Default : Нет
Forced : Нет

Текст #1
Идентификатор : 4
Формат : UTF-8
Идентификатор кодека : S_TEXT/UTF8
Идентификатор кодека/Информация : UTF-8 Plain Text
Продолжительность : 56 м. 48 с.
Битрейт : 90 бит/сек
ElementCount : 682
Размер потока : 37,6 Кбайт (0%)
Заголовок : Full |N-Team|
Язык : Russian
Default : Нет
Forced : Нет

Текст #2
Идентификатор : 5
Формат : UTF-8
Идентификатор кодека : S_TEXT/UTF8
Идентификатор кодека/Информация : UTF-8 Plain Text
Продолжительность : 56 м. 48 с.
Битрейт : 57 бит/сек
ElementCount : 744
Размер потока : 23,9 Кбайт (0%)
Заголовок : Full
Язык : English
Default : Нет
Forced : Нет

Меню
00:00:00.000 : en:00:00:00.000
00:10:07.880 : en:00:10:07.880
00:19:53.640 : en:00:19:53.640
00:31:42.760 : en:00:31:42.760
00:40:09.440 : en:00:40:09.440
00:46:17.560 : en:00:46:17.560

pb.wtf



Скачать Заточенные кепки через торрент http://img15.lostpic.net/2018/12/23/8034ffa03823c482c34a12fe5d90046a.png Скачать фильм Заточенные кепки через торрент бесплантно в хорошем качестве Описание: Британский сериал о криминальном мире Бирмингема 20-х годов прошлого века, в котором многолюдная семья Шелби стала одной из самых ... 10 10 4
Торрент: Зарегистрирован [2018-12-23 13:15] · скачан: 104 раз
Статус: √ проверено
Размер: 25 GB
Как cкачать? Как скачать Заточенные кепки через торрент | qTorrent

% Раздел Тема Автор DL S | L
Зарубежные сериалы [ 9.83 GB ] Заточенные кепки / Острые козырьки / Peaky Blinders / Сезон: 4 / Серии: 1-6 из 6 [2017 WEB-DLRip 1080p] [MVO] killermax2013 Скачать
1 | 0
Зарубежные сериалы [ 3.67 GB ] Заточенные кепки / Острые козырьки / Peaky Blinders / Сезон: 4 / Серии: 1-6 из 6 [2017 HDTVRip-AVC] многоголосый [AlexFilm] R.G.Generalfilm White Smoke Скачать
1 | 0
Зарубежные сериалы [ 7.72 GB ] Заточенные кепки / Острые козырьки / Peaky Blinders / Сезон: 4 / Серии: 1-6 из 6 [2017 HDTVRip 720p][MVO] nn99nn Скачать
1 | 0
Зарубежные сериалы [ 5.93 GB ] Заточенные кепки / Острые козырьки / Peaky Blinders / Сезон:4 / Серии: 1-6 из 6 [2017 WEBRip 720p] [DVO] killermax2013 Скачать
1 | 0
Зарубежные сериалы [ 10.57 GB ] Заточенные кепки / Острые козырьки / Peaky Blinders / Сезон: 4 / Серии: 1-6 из 6 [2017 HDTVRip 1080p] [Sub] killermax2013 Скачать
1 | 0
Зарубежные сериалы [ 5.91 GB ] Заточенные кепки /Острые козырьки / Peaky Blinders / Сезон 4 / Серии 1-6 из 6 [2017 WEBRip 720p] MVO [Jaskier] bober100 Скачать
1 | 0
Зарубежные сериалы [ 12.37 GB ] Заточенные кепки /Острые козырьки / Peaky Blinders / Сезон 4 / Серии 1-6 из 6 [2017 WEB-DL 1080p] MVO [Jaskier] bober100 Скачать
1 | 0

28-11-2019 20:33  

Отключить всю рекламу на сайте

    Дорогой пользователь! Огромная просьба, поблагодарите релизера, оцените раздачу и оставьте свои комментарий, если Вы скачали Заточенные кепки через торрент бесплатно! Внесите свою лепту в развитие PiratBit!
    Комментировать посты могут только пользователи прошедшие не сложную регистрацию
    Показать сообщения:    

    Заточенные кепки через торрент
    Скачать бесплатно Заточенные кепки
    Заточенные кепки скачать торрент
    Заточенные кепки смотреть онлайн
    Cкачать фильм Заточенные кепки бесплатно
    Заточенные кепки скачать торрент в хорошем качестве
    Заточенные кепки смотреть онлайн бесплатно в хорошем качестве


    Вы не можете начинать темы
    Вы не можете отвечать на сообщения
    Вы не можете редактировать свои сообщения
    Вы не можете удалять свои сообщения
    Вы не можете голосовать в опросах
    Вы не можете прикреплять файлы к сообщениям
    Вы можете скачивать файлы