Ребята, если до конца года каждый наш пользователь пожертвует хотя бы 10 рублей, нам хватит денег оплатить все наши расходы.

iTunes

Хэллоуин

iTunes

venom

iTunes

Вы умрете, или мы вернем вам деньги

iTunes

iTunes

Тайна дома с часами

iTunes

Ничего хорошего в отеле «Эль рояль»

1080p

Хит недели

Лицензия

Агент Джонни Инглиш 3.0

ИГРА 18+

pack

RePack

Battlefield V

RePack

Assassins Creed: Odyssey
pack

Проголосуй

Лучший релизер 2018

RePack

Darksiders 3

iTunes 4K

venom Хит недели

RePack

fifa19

!!Акция!!

Alien_RageХит недели

RePack

NEED FOR SPEED™ PAYBACK

SATRip

9 сезон

Бесстыжие 9 сезон

Все сериалы

все сериалы на PB.wtf

iTunes

Мэнди

RePack

FAR CRY 5
  

Страна приливов / Tidelands / Сезон 1 / Серии 1-8 (8) (Стефен Ирвин, Ли МакГрат) [2018, фэнтези, драма, криминал, WEB-DL 1080p] [MVO] (LostFilm)

Страна приливов через торрент

Размер: 15.1 GB | Добавлен: 6 д. назад | Торрент скачан:7 раз
Скачать  

23-12-2018 15:32 Страна приливов Скачать торрент  


Страна приливов / Tidelands
Год выпуска • 2018
Страна • Австралия
Жанр • фэнтези, драма, криминал
Продолжительность • ~00:44:00
Перевод
    • Профессиональный (многоголосый) LostFilm

Создатель • Стефен Ирвин, Ли МакГрат

В ролях • Шарлотта Бест, Дастин Клер, Маттиас Инвуд, Аарон Якубенко, Мадлен Мэдден, Питер О’Брайэн, Эльза Патаки и др.
Описание • Бывшая преступница возвращается домой в маленькую деревеньку Орфелин Бэй. Спокойной жизни не суждено состояться: вскоре неподалеку всплывет тело местного рыбака, а героиня столкнется с интересным феноменом — орудующей в прибрежной зоне группой таинственных человекоамфибий.

rating

Релиз - скриншот  

Качество: WEB-DL 1080p (Netflix)
Формат: MKV
Видео: H.264/AVC, 1920x960p (2:1), 25 fps, ~5229 kbps, ~0.113 bit/pixel
Аудио 1: Русский E-AC3/DD+ 5.1, 48 kHz, 640 kbps
Аудио 2: Английский E-AC3/DD+ 5.1, 48 kHz, 640 kbps
Субтитры: Русские, Английские (SDH), Английские
скриншот  скриншот  скриншот  
General
Unique ID : 278718523203383703122371426287448281999 (0xD1AF3C2841E230587F1B3D0649A0D38F)
Complete name : Tidelands.2018.S01.1080p.NF.WEB-DL.H.264.RUS.LF.DDP5.1.SRT\Tidelands.S01E01.Home.1080p.NF.WEB-DL.H.264.RUS.LF.DDP5.1.SRT.mkv
Format : Matroska
Format version : Version 4 / Version 2
File size : 1.90 GiB
Duration : 41 min 48 s
Overall bit rate : 6 512 kb/s
Movie name : Tidelands, Season 1 / Home
Track name/Position : 1
Track name/Total : 8
Description : After a 10-year prison sentence, Calliope "Cal" McTeer returns home to Orphelin Bay, where her brother Augie is dealing with a fisherman's murder.
Released date : UTC 2018-12-14 12:00:00
Writing application : mkvmerge v30.1.0 ('Forever And More') 64-bit
Writing library : libebml v1.3.6 + libmatroska v1.4.9
Cover : Yes
Attachments : small_cover.jpg / cover.jpg

Video
ID : 1
Format : AVC
Format/Info : Advanced Video Codec
Format profile : Main@L4.1
Format settings : CABAC / 4 Ref Frames
Format settings, CABAC : Yes
Format settings, RefFrames : 4 frames
Codec ID : V_MPEG4/ISO/AVC
Duration : 41 min 48 s
Bit rate : 5 229 kb/s
Width : 1 920 pixels
Height : 960 pixels
Display aspect ratio : 2.000
Frame rate mode : Constant
Frame rate : 25.000 FPS
Color space : YUV
Chroma subsampling : 4:2:0
Bit depth : 8 bits
Scan type : Progressive
Bits/(Pixel*Frame) : 0.113
Stream size : 1.53 GiB (80%)
Language : English
Default : Yes
Forced : No
Color range : Limited
Color primaries : BT.709
Transfer characteristics : BT.709
Matrix coefficients : BT.709

Audio #1
ID : 2
Format : E-AC-3
Format/Info : Enhanced Audio Coding 3
Format settings, Endianness : Big
Codec ID : A_EAC3
Duration : 41 min 48 s
Bit rate mode : Constant
Bit rate : 640 kb/s
Channel(s) : 6 channels
Channel positions : Front: L C R, Side: L R, LFE
Sampling rate : 48.0 kHz
Frame rate : 187.500 FPS (256 SPF)
Compression mode : Lossy
Stream size : 191 MiB (10%)
Title : E-AC3 5.1 @ 640 kbps - MVO, Lostfilm
Language : Russian
Service kind : Complete Main
Default : Yes
Forced : No
Released date : UTC 2018-12-18 18:10:19

Audio #2
ID : 3
Format : E-AC-3
Format/Info : Enhanced Audio Coding 3
Format settings, Endianness : Big
Codec ID : A_EAC3
Duration : 41 min 48 s
Bit rate mode : Constant
Bit rate : 640 kb/s
Channel(s) : 6 channels
Channel positions : Front: L C R, Side: L R, LFE
Sampling rate : 48.0 kHz
Frame rate : 187.500 FPS (256 SPF)
Compression mode : Lossy
Stream size : 191 MiB (10%)
Title : E-AC3 5.1 @ 640 kbps - Original
Language : English
Service kind : Complete Main
Default : No
Forced : No

Text #1
ID : 4
Format : UTF-8
Codec ID : S_TEXT/UTF8
Codec ID/Info : UTF-8 Plain Text
Duration : 39 min 27 s
Bit rate : 53 b/s
Count of elements : 349
Stream size : 15.6 KiB (0%)
Language : Russian
Default : No
Forced : No

Text #2
ID : 5
Format : UTF-8
Codec ID : S_TEXT/UTF8
Codec ID/Info : UTF-8 Plain Text
Duration : 40 min 21 s
Bit rate : 46 b/s
Count of elements : 431
Stream size : 13.6 KiB (0%)
Title : SDH
Language : English
Default : No
Forced : No

Text #3
ID : 6
Format : UTF-8
Codec ID : S_TEXT/UTF8
Codec ID/Info : UTF-8 Plain Text
Duration : 38 min 40 s
Bit rate : 35 b/s
Count of elements : 321
Stream size : 10.1 KiB (0%)
Language : English
Default : No
Forced : No
Внимание! Раздача ведётся путём добавления новых серий; при каждом добавлении создаётся новый торрент. Чтобы начать докачку новой серии, пользователям необходимо сделать следующее:
(1) остановить скачивание,
(2) удалить старый торрент у себя из клиента (старые серии удалять не надо),
(3) скачать новый торрент и запустить его у себя в клиенте вместо старого, при этом указать клиенту путь в старую папку куда и должно происходить скачивание новых серий.
Ваш клиент при этом должен произвести хеширование (проверку) старой папки (если не производит сам - помогите ему сделать это), и будет докачивать только те серии которых у вас ещё нет. Старые серии при этом не удаляются, а продолжают раздаваться!
Eсли вы уже удалили старые серии, то предотвратить повторную закачку старых серий можно, отжав галочку в соответствующих местах при запуске нового торрента. По возможности, желательно не удалять старые серии как можно дольше чтобы релизёр не столько продолжал раздавать старые серии, а смог сконцентрироваться на новых.



Скачать Страна приливов через торрент http://b.radikal.ru/b01/1812/1e/627781e124c2.jpg Скачать фильм Страна приливов через торрент бесплантно в хорошем качестве Описание • Бывшая преступница возвращается домой в маленькую деревеньку Орфелин Бэй. Спокойной жизни не суждено состояться: вскоре ... 10 10 5
Торрент: Зарегистрирован [2019-01-11 12:47] · скачан: 7 раз
Статус: √ проверено
Размер: 15.1 GB
Как cкачать? Как скачать Страна приливов через торрент | qTorrent

% Раздел Тема Автор DL S | L
Зарубежные сериалы [ 4.15 GB ] Страна приливов / Tidelands / Сезон 1 / Серии 1-8 [2018 WEBRip] [MVO] killermax2013 Скачать
1 | 0
Зарубежные сериалы [ 13.79 GB ] Страна приливов / Tidelands / Сезон 1 / Серии 1-8 [2018 WEB-DL 1080p] [MVO] killermax2013 Скачать
1 | 0
Зарубежные сериалы [ 3.2 GB ] Страна приливов / Tidelands / Сезон 1 / Серии 1-8 [2018 WEBRip] [MVO] killermax2013 Скачать
3 | 0
Зарубежные сериалы [ 14.84 GB ] Страна приливов / Tidelands / Сезон 1 / Серии 1-8 [2018 WEBRip 1080p] [MVO] killermax2013 Скачать
1 | 0
Зарубежные сериалы [ 12.59 GB ] Страна приливов / Tidelands / Сезон 1 / Серии 1-8 [2018 WEBRip 1080p] [MVO] killermax2013 Скачать
1 | 0
Зарубежные сериалы [ 12.29 GB ] Страна приливов / Tidelands / Сезон 1 / Серии 1-8 [2018 WEBRip 1080p] [Sub Rus] killermax2013 Скачать
2 | 0


>> Регистрируемся здесь <<






Отзывы и комментарии о схеме читаем и пишем здесь: ---> Отзывы и комментарии о схеме

Новые благодарочки в телеграм довольных пользователей:
скриншот   скриншот   скриншот   скриншот   скриншот
    Дорогой пользователь! Огромная просьба, поблагодарите релизера, оцените раздачу и оставьте свои комментарий, если Вы скачали Страна приливов через торрент бесплатно! Внесите свою лепту в развитие PiratBit!
    Комментировать посты могут только пользователи прошедшие не сложную регистрацию
    Показать сообщения:    

    Страна приливов через торрент
    Скачать бесплатно Страна приливов
    Страна приливов скачать торрент
    Страна приливов смотреть онлайн
    Cкачать фильм Страна приливов бесплатно
    Страна приливов скачать торрент в хорошем качестве
    Страна приливов смотреть онлайн бесплатно в хорошем качестве


    Вы не можете начинать темы
    Вы не можете отвечать на сообщения
    Вы не можете редактировать свои сообщения
    Вы не можете удалять свои сообщения
    Вы не можете голосовать в опросах
    Вы не можете прикреплять файлы к сообщениям
    Вы можете скачивать файлы