Ссылка на приватное зеркало всего за 1$. Внимание количество ограничено!!!

OK

1+1

iTunes

мы

OK

1

WEB-DLRip

Джокер

Пифагор

Ведьмак / The Witcher сериал

iTunes

ПШазам

ОК

Оно 2

iTunes

30
pack

Вам бонус

ВАЖНО

!!Акция!!

Alien_RageХит недели

RePack

Resident Evil 21

ИГРА 18+

pack

RePack

jed

RePack

fifa19

RePack

Assassins Creed: Odyssey

RePack

NEED FOR SPEED™ PAYBACK

4 сезон

9 сезон

Бесстыжие 9 сезон

Все сериалы

все сериалы на PB.wtf

RePack

FAR CRY 5
  

Смерть из поднебесья / Hover (Мэтт Остерман) [2018, Фантастика, WEB-DL 1080p] DUB [Line] pb.wtf

Смерть из поднебесья через торрент pb.wtf

Размер: 3.85 GB | Добавлен: 1 год 1 мес. назад | Торрент скачан:67 раз
Скачать  

23-12-2018 17:02 Смерть из поднебесья Скачать торрент  

Смерть из поднебесья / Hover Год выпуска: 2018
Страна: США
Жанр: Фантастика
Продолжительность: 01:29:01
Перевод: Дублированный | Line
Субтитры: отсутствуют

Режиссер: Мэтт Остерман

rating

В ролях:

Клеопатра Коулмэн, Шэйн Цвинер, Мумс Да Шемер, Фаббианн Терез, Рода Гриффис, Лео Фицпатрик, Бет Грант, Ронда Дентс, Касандра Бэндфилд, Дон Хендерсон Бэйкер

Описание:

Недалёкое будущее. Из-за экологической катастрофы человечество испытывает нехватку продовольствия. Технологии позволяют максимизировать урожай с помощью сельскохозяйственных дронов. Клавдия и её наставник Джон делают всё, что в их силах, чтобы облегчить смерть больным жителям угодий. Но когда по странным причинам умирает сам Джон, Клавдия и местные жители обнаруживают ужасающую связь между здоровьем людей и сельскохозяйственными технологиями.

Качество: WEB-DL 1080p
Формат: MKV

Видео: h.264, 5 787 kb/s, 1920x800
Аудио#1: Русский, (AC3, 2 ch, 384 Кбит/с)
скриншот  скриншот  скриншот  

Общее
Уникальный идентификатор : 236861426579295727237814826146703309397 (0xB231D9F621EDD4878E8E641322E77A55)
Полное имя : D:\Hover.2018.D.WEB-DL.1O8Op_KOSHARA.mkv
Формат : Matroska
Версия формата : Version 2
Размер файла : 3,85 Гбайт
Продолжительность : 1 ч. 29 м.
Режим общего битрейта : Переменный
Общий поток : 6173 Кбит/сек
Дата кодирования : UTC 2018-12-23 07:20:14
Программа кодирования : mkvmerge v8.3.0 ('Over the Horizon') 64bit
Библиотека кодирования : libebml v1.3.1 + libmatroska v1.4.2

Видео
Идентификатор : 1
Формат : AVC
Формат/Информация : Advanced Video Codec
Профиль формата : High@L4.1
Параметр CABAC формата : Да
Параметр RefFrames формата : 4 кадра
Идентификатор кодека : V_MPEG4/ISO/AVC
Продолжительность : 1 ч. 29 м.
Вид битрейта : Переменный
Битрейт : 5787 Кбит/сек
Максимальный битрейт : 6500 Кбит/сек
Ширина : 1920 пикселей
Высота : 800 пикселей
Соотношение сторон : 2,40:1
Режим частоты кадров : Постоянный
Частота кадров : 23,976 (24000/1001) кадра/сек
Стандарт вещания : Component
Цветовое пространство : YUV
Субдискретизация насыщенности : 4:2:0
Битовая глубина : 8 бит
Тип развёртки : Прогрессивная
Бит/(Пиксели*Кадры) : 0.154
Размер потока : 3,53 Гбайт (92%)
Default : Да
Forced : Нет
Цветовой диапазон : Limited
Основные цвета : BT.709
Характеристики трансфера : BT.709
Коэффициенты матрицы : BT.709

Аудио
Идентификатор : 2
Формат : AC-3
Формат/Информация : Audio Coding 3
Расширение режима : CM (complete main)
Параметр Endianness формата : Big
Идентификатор кодека : A_AC3
Продолжительность : 1 ч. 29 м.
Вид битрейта : Постоянный
Битрейт : 384 Кбит/сек
Каналы : 2 канала
Расположение каналов : Front: L R
Частота : 48,0 КГц
Частота кадров : 31,250 кадров/сек (1536 spf)
Метод сжатия : С потерями
Размер потока : 245 Мбайт (6%)
Default : Да
Forced : Нет

pb.wtf



Скачать Смерть из поднебесья через торрент http://img15.lostpic.net/2018/12/23/82faa8fbbf0105f15374502182263bcf.jpg Скачать фильм Смерть из поднебесья через торрент бесплантно в хорошем качестве Описание: Недалёкое будущее. Из-за экологической катастрофы человечество испытывает нехватку продовольствия. Технологии позволяют ... 9.3 10 3
Торрент: Зарегистрирован [2018-12-23 17:02] · скачан: 67 раз
Статус: T временная
Размер: 3.85 GB
Как cкачать? Как скачать Смерть из поднебесья через торрент | qTorrent

% Раздел Тема Автор DL S | L
T Фильмы (мультфильмы) cо спонсором показа (Новинки AVI/MKV) [ 3.34 GB ] Смерть из поднебесья / Hover [2018 WEB-DL 720p] DUB [Line] bober100 Скачать
1 | 0
T Фильмы (мультфильмы) cо спонсором показа (Новинки AVI/MKV) [ 1.37 GB ] Смерть из поднебесья / Hover [2018 WEB-DLRip] DUB [Line] bober100 Скачать
1 | 0

28-11-2019 20:33  

Отключить всю рекламу на сайте


    Дорогой пользователь! Огромная просьба, поблагодарите релизера, оцените раздачу и оставьте свои комментарий, если Вы скачали Смерть из поднебесья через торрент бесплатно! Внесите свою лепту в развитие PiratBit!
    Комментировать посты могут только пользователи прошедшие не сложную регистрацию
    Показать сообщения:    

    Смерть из поднебесья через торрент
    Скачать бесплатно Смерть из поднебесья
    Смерть из поднебесья скачать торрент
    Смерть из поднебесья смотреть онлайн
    Cкачать фильм Смерть из поднебесья бесплатно
    Смерть из поднебесья скачать торрент в хорошем качестве
    Смерть из поднебесья смотреть онлайн бесплатно в хорошем качестве


    Вы не можете начинать темы
    Вы не можете отвечать на сообщения
    Вы не можете редактировать свои сообщения
    Вы не можете удалять свои сообщения
    Вы не можете голосовать в опросах
    Вы не можете прикреплять файлы к сообщениям
    Вы можете скачивать файлы