Marvel's Avengers Deluxe Edition (супер цена) 159р. Внимание количество ограничено!!!

2 сезон

iTunes

iTunes

1

iTunes

iTunes

iTunes

WEBRip

iTunes

30
pack

Новость дня

ВАЖНО

!!Акция!!

Alien_RageХит недели

RePack

Horizon Zero Dawn

ИГРА 18+

pack

RePack

jed

!!Акция!!

Alien_Rage

RePack

fifa19

RePack

Assassins Creed: Odyssey

RePack

NEED FOR SPEED™ PAYBACK

4 сезон

9 сезон

Бесстыжие 9 сезон

Все сериалы

все сериалы на PB.wtf

RePack

FAR CRY 5
  

Питер Пэн: В поисках магической книги / Peter Pan: The Quest for the Never Book (Чандрасекаран) [2018, мультфильм, WEB-DL 720p] MVO [Официальный звук] pb.wtf

Питер Пэн: В поисках магической книги через торрент pb.wtf

Размер: 3.34 GB | Добавлен: 1 год 8 мес. назад | Торрент скачан:9 раз
Скачать  

23-12-2018 17:20 Питер Пэн: В поисках магической книги Скачать торрент  

Питер Пэн: В поисках магической книги / Peter Pan: The Quest for the Never Book Год выпуска: 2018
Страна: Индия
Жанр: мультфильм
Продолжительность: 01:29:26
Перевод: Профессиональный многоголосый | Официальный звук
Субтитры: отсутствуют

Режиссер: Чандрасекаран

rating

В ролях:

Мишель Кребер, Майкл Добсон, Мэтт Хилл, Мишель Молино, Сара Наточенни

Описание:

Нетландия находится в большой опасности, когда знаменитая Нигдешняя Книга попадает в руки хитрого Капитана крюка, который злоупотребляет своей магической силой, чтобы дать волю злым монстрам, чтобы уничтожить Питера Пэна и его друзей.

Сможет ли Питер выполнить легендарное пророчество Нигдешной книги с помощью своих друзей? Сможет ли он спасти Нетландию и Лондон?

Качество: WEB-DL 720p
Формат: MKV

Видео: h.264, 4 962 Кбит/с, 1280x720
Аудио#1: Русский, (AC3, 2 ch, 384 Кбит/с)
скриншот  скриншот  скриншот  

Общее
Уникальный идентификатор : 181326889517575905379319735838763570586 (0x886A49E34ABB9C3AA26696C75F22D59A)
Полное имя : D:\PeterPanTheQuestfortheNeverBook.2O18.Pof.WEB-DL.72Op.mkv
Формат : Matroska
Версия формата : Version 2
Размер файла : 3,34 Гбайт
Продолжительность : 1 ч. 29 м.
Режим общего битрейта : Переменный
Общий поток : 5348 Кбит/сек
Дата кодирования : UTC 2018-12-23 05:38:32
Программа кодирования : mkvmerge v8.3.0 ('Over the Horizon') 64bit
Библиотека кодирования : libebml v1.3.1 + libmatroska v1.4.2

Видео
Идентификатор : 1
Формат : AVC
Формат/Информация : Advanced Video Codec
Профиль формата : High@L4.1
Параметр CABAC формата : Да
Параметр RefFrames формата : 4 кадра
Идентификатор кодека : V_MPEG4/ISO/AVC
Продолжительность : 1 ч. 29 м.
Вид битрейта : Переменный
Битрейт : 4962 Кбит/сек
Максимальный битрейт : 5500 Кбит/сек
Ширина : 1280 пикселей
Высота : 720 пикселей
Соотношение сторон : 16:9
Режим частоты кадров : Постоянный
Частота кадров : 23,976 (24000/1001) кадра/сек
Стандарт вещания : Component
Цветовое пространство : YUV
Субдискретизация насыщенности : 4:2:0
Битовая глубина : 8 бит
Тип развёртки : Прогрессивная
Бит/(Пиксели*Кадры) : 0.220
Размер потока : 3,03 Гбайт (91%)
Default : Да
Forced : Нет
Цветовой диапазон : Limited
Основные цвета : BT.709
Характеристики трансфера : BT.709
Коэффициенты матрицы : BT.709

Аудио
Идентификатор : 2
Формат : AC-3
Формат/Информация : Audio Coding 3
Расширение режима : CM (complete main)
Параметр Endianness формата : Big
Идентификатор кодека : A_AC3
Продолжительность : 1 ч. 29 м.
Вид битрейта : Постоянный
Битрейт : 384 Кбит/сек
Каналы : 2 канала
Расположение каналов : Front: L R
Частота : 48,0 КГц
Частота кадров : 31,250 кадров/сек (1536 spf)
Метод сжатия : С потерями
Размер потока : 246 Мбайт (7%)
Default : Да
Forced : Нет

pb.wtf



Скачать Питер Пэн: В поисках магической книги через торрент http://img15.lostpic.net/2018/12/23/fcf8f5fe014d73b95ddeae7d7e7e1e44.jpg Скачать фильм Питер Пэн: В поисках магической книги через торрент бесплантно в хорошем качестве Описание: Нетландия находится в большой опасности, когда знаменитая Нигдешняя Книга попадает в руки хитрого Капитана крюка, который ... 10 10 3
Торрент: Зарегистрирован [2018-12-23 17:20] · скачан: 9 раз
Статус: T временная
Размер: 3.34 GB
Как cкачать? Как скачать Питер Пэн: В поисках магической книги через торрент | qTorrent

% Раздел Тема Автор DL S | L
T Фильмы (мультфильмы) cо спонсором показа (Новинки AVI/MKV) [ 3.67 GB ] Питер Пэн: В поисках магической книги / Peter Pan: The Quest for the Never Book [2018 мультфильм WEB-DL 1080p] MVO [Официальный звук] bober100 Скачать
1 | 0
Иностранные мультфильмы [ 1.45 GB ] Питер Пэн: В поисках магической книги / Peter Pan: The Quest for the Never Book [2018 мультфильм WEB-DLRip] MVO bober100 Скачать
1 | 0

28-11-2019 20:33  

Отключить всю рекламу на сайте

    Дорогой пользователь! Огромная просьба, поблагодарите релизера, оцените раздачу и оставьте свои комментарий, если Вы скачали Питер Пэн: В поисках магической книги через торрент бесплатно! Внесите свою лепту в развитие PiratBit!
    Комментировать посты могут только пользователи прошедшие не сложную регистрацию
    Показать сообщения:    

    Питер Пэн: В поисках магической книги через торрент
    Скачать бесплатно Питер Пэн: В поисках магической книги
    Питер Пэн: В поисках магической книги скачать торрент
    Питер Пэн: В поисках магической книги смотреть онлайн
    Cкачать фильм Питер Пэн: В поисках магической книги бесплатно
    Питер Пэн: В поисках магической книги скачать торрент в хорошем качестве
    Питер Пэн: В поисках магической книги смотреть онлайн бесплатно в хорошем качестве


    Вы не можете начинать темы
    Вы не можете отвечать на сообщения
    Вы не можете редактировать свои сообщения
    Вы не можете удалять свои сообщения
    Вы не можете голосовать в опросах
    Вы не можете прикреплять файлы к сообщениям
    Вы можете скачивать файлы