Ссылка на приватное зеркало всего за 1$. Внимание количество ограничено!!!

OK

1+1

iTunes

мы

OK

1

WEB-DLRip

Джокер

Пифагор

Ведьмак / The Witcher сериал

Лицензия

ПШазам

ОК

Оно 2

iTunes

30
pack

Вам бонус

ВАЖНО

!!Акция!!

Alien_RageХит недели

RePack

Resident Evil 21

ИГРА 18+

pack

RePack

jed

!!Акция!!

Alien_Rage

RePack

fifa19

RePack

Assassins Creed: Odyssey

RePack

NEED FOR SPEED™ PAYBACK

4 сезон

9 сезон

Бесстыжие 9 сезон

Все сериалы

все сериалы на PB.wtf

RePack

FAR CRY 5
  

Досрочное освобождение / Early Release (Джон Л’Экуаер) [2017, Триллер, WEB-DL 720p] MVO [Официальный звук] pb.wtf

Досрочное освобождение через торрент pb.wtf

Размер: 3.2 GB | Добавлен: 1 год назад | Торрент скачан:22 раза
Скачать  

23-12-2018 17:36 Досрочное освобождение Скачать торрент  

Досрочное освобождение / Early ReleaseГод выпуска: 2017
Страна: Канада
Жанр: Триллер
Продолжительность: 01:27:39
Перевод: Профессиональный многоголосый | Официальный звук
Субтитры: отсутствуют

Режиссер: Джон Л’Экуаер

rating

В ролях:

Келли Уильямс, Нив Уилсон, Сарэн Бойлэн, Конрад Коутс, Лени Паркер, Даррен Эйснор, Майкла Дугласа Кейк, Джастин Мэдер, Жюльен Эрвин Дюпуа, Сьюзэн Бэйн

Описание:

Тэйлор Рэйнолдс типичная жена и мама, совершившая пару ошибок в прошлом. Она была приговорена к трем годам тюремного заключения и освобождена досрочно за примерное поведение. Работая над собой Тэйлор постепенно возвращает доверие дочери и налаживает отношения с мужем, но неожиданно на пороге ее дома появляется ее бывшая сокамерница, затаившая на нее обиду, и теперь жизнь главной героини снова может измениться не в лучшую сторону.

Качество: WEB-DL 720p
Формат: MKV

Видео: h.264, 4 848 Кбит/с, 1280x720
Аудио#1: Русский, (AC3, 2 ch, 384 Кбит/с)
скриншот  скриншот  скриншот  

Общее
Уникальный идентификатор : 214211519545857568450819854760121098047 (0xA127A3537BC152F999ABCC1152365F3F)
Полное имя : D:\Early.Release.2017.Pof.WEBDL.72Op.mkv
Формат : Matroska
Версия формата : Version 2
Размер файла : 3,20 Гбайт
Продолжительность : 1 ч. 27 м.
Режим общего битрейта : Переменный
Общий поток : 5234 Кбит/сек
Дата кодирования : UTC 2018-12-23 12:19:12
Программа кодирования : mkvmerge v8.3.0 ('Over the Horizon') 64bit
Библиотека кодирования : libebml v1.3.1 + libmatroska v1.4.2

Видео
Идентификатор : 1
Формат : AVC
Формат/Информация : Advanced Video Codec
Профиль формата : High@L4.1
Параметр CABAC формата : Да
Параметр RefFrames формата : 4 кадра
Идентификатор кодека : V_MPEG4/ISO/AVC
Продолжительность : 1 ч. 27 м.
Вид битрейта : Переменный
Битрейт : 4848 Кбит/сек
Максимальный битрейт : 5500 Кбит/сек
Ширина : 1280 пикселей
Высота : 720 пикселей
Соотношение сторон : 16:9
Режим частоты кадров : Постоянный
Частота кадров : 23,976 (24000/1001) кадра/сек
Стандарт вещания : Component
Цветовое пространство : YUV
Субдискретизация насыщенности : 4:2:0
Битовая глубина : 8 бит
Тип развёртки : Прогрессивная
Бит/(Пиксели*Кадры) : 0.215
Размер потока : 2,91 Гбайт (91%)
Default : Да
Forced : Нет
Цветовой диапазон : Limited
Основные цвета : BT.709
Характеристики трансфера : BT.709
Коэффициенты матрицы : BT.709

Аудио
Идентификатор : 2
Формат : AC-3
Формат/Информация : Audio Coding 3
Расширение режима : CM (complete main)
Параметр Endianness формата : Big
Идентификатор кодека : A_AC3
Продолжительность : 1 ч. 27 м.
Вид битрейта : Постоянный
Битрейт : 384 Кбит/сек
Каналы : 2 канала
Расположение каналов : Front: L R
Частота : 48,0 КГц
Частота кадров : 31,250 кадров/сек (1536 spf)
Метод сжатия : С потерями
Размер потока : 241 Мбайт (7%)
Default : Да
Forced : Нет

pb.wtf



Скачать Досрочное освобождение через торрент http://img11.lostpic.net/2018/07/02/b2fb46c074418b07d83c82731eb18b55.jpg Скачать фильм Досрочное освобождение через торрент бесплантно в хорошем качестве Описание: Тэйлор Рэйнолдс ичная жена и мама, совершившая пару ошибок в прошлом. Она была приговорена к трем годам тюремного заключения и ... 9.8 10 5
Торрент: Зарегистрирован [2018-12-23 17:36] · скачан: 22 раз
Статус: T временная
Размер: 3.2 GB
Как cкачать? Как скачать Досрочное освобождение через торрент | qTorrent

% Раздел Тема Автор DL S | L
Фильмы 2017 [DVDrip, WEB-DLRip, HDrip] (DUB, MVO) [ 1.37 GB ] Досрочное освобождение / Early Release [2017 HDTVRip] [MVO] killermax2013 Скачать
1 | 0
T Фильмы (мультфильмы) cо спонсором показа (Новинки AVI/MKV) [ 1.37 GB ] Досрочное освобождение / Early Release [2017 WEB-DLRip] MVO [Официальный звук] bober100 Скачать
1 | 0

28-11-2019 20:33  

Отключить всю рекламу на сайте


24-12-2018 06:13 Досрочное освобождение Скачать торрент  

Спасибо за раздачу,фильм - говно...жду красотку,титаник...ну и форреста гампа,куда без него... pb.wtf



    Дорогой пользователь! Огромная просьба, поблагодарите релизера, оцените раздачу и оставьте свои комментарий, если Вы скачали Досрочное освобождение через торрент бесплатно! Внесите свою лепту в развитие PiratBit!
    Комментировать посты могут только пользователи прошедшие не сложную регистрацию
    Показать сообщения:    

    Досрочное освобождение через торрент
    Скачать бесплатно Досрочное освобождение
    Досрочное освобождение скачать торрент
    Досрочное освобождение смотреть онлайн
    Cкачать фильм Досрочное освобождение бесплатно
    Досрочное освобождение скачать торрент в хорошем качестве
    Досрочное освобождение смотреть онлайн бесплатно в хорошем качестве


    Вы не можете начинать темы
    Вы не можете отвечать на сообщения
    Вы не можете редактировать свои сообщения
    Вы не можете удалять свои сообщения
    Вы не можете голосовать в опросах
    Вы не можете прикреплять файлы к сообщениям
    Вы можете скачивать файлы