Ссылка на приватное зеркало нашего сайта всего за 1$. Внимание количество ограничено!!!

2 сезон

iTunes

1 сезон

1

iTunes

iTunes

iTunes

1 сезон

RePack

30

ИГРА 18+

pack

ВАЖНО

!!Акция!!

Alien_RageХит недели

RePack

MK11
pack

Забери бонус

RePack

jed

!!Акция!!

Alien_Rage

RePack

fifa19

RePack

Assassins Creed: Odyssey

RePack

NEED FOR SPEED™ PAYBACK

4 сезон

9 сезон

Бесстыжие 9 сезон

Все сериалы

все сериалы на PB.wtf

RePack

FAR CRY 5
  

Шулер / Одесса-мама / Серии: 1-10 из 10 (Эдуард Парри) [2013, Криминал, драма, WEB-DL 720p] pb.wtf

Шулер через торрент pb.wtf

Размер: 7.17 GB | Добавлен: 1 год 10 мес. назад | Торрент скачан:104 раза
Скачать  

23-12-2018 18:42 Шулер Скачать торрент  

Шулер / Одесса-мама Год выпуска: 2013
Страна: Украина
Жанр: Криминал, драма
Продолжительность: ~ 00:50:00
Субтитры: отсутствуют

Режиссер: Эдуард Парри



В ролях:

Антон Феоктистов, Ольга Лерман, Сергей Сосновский, Алексей Ведерников (II), Алексей Горбунов, Сергей Алимпиев, Кирилл Козаков, Екатерина Волкова, Юлия Галкина, Владимир Карпов (III), Александр Робак, Павел Трубинер, Александр Савенков, Алексей Смолка, Вадим Цаллати

Описание:

Дело происходит в Одессе в 1980 год. У Костика Волошина большие планы, он хочет удрать за кордон. У него двойная жизнь – должность научного сотрудника НИИ лишь прикрытие для шулерской деятельности, в которой Костик абсолютный профи. Спасаясь от карточника Гоги, которому он задолжал большую сумму денег, Костик едет в Одессу, откуда сам родом. Ему нужно заработать денег чтобы уехать из страны. Все аферы наш герой проворачивает под прикрытием Балабана, который крышует всю Одессу. Однако лучший друг и покровитель Балабан становится врагом номер один, когда Костик узнает, что именно он причастен к гибели его отца. А теперь Балабан еще и намерен выжить Костика из города, ведь у них на пути вставала одна девушка по имени Майя. Костик решает заставить Балабана заплатить за смерть своего отца.

Качество: WEB-DL 720p
Формат: MKV

Видео: MPEG-4 AVC, ~ 1800 Кбит/с, 1280x716
Аудио: Русский (AC3, 2 ch, 192 Кбит/с)

Общее
Уникальный идентификатор : 181343492325562940994464481409047543862 (0x886D7C7830AC6D3B91740165CED54036)
Полное имя : E:\торреннты\Shuler.2013.WEB-DL.720p\Shuler.2013.WEB-DL.720p_01.seriya.mkv
Формат : Matroska
Версия формата : Version 2
Размер файла : 699 Мбайт
Продолжительность : 49 м. 10 с.
Общий поток : 1988 Кбит/сек
Дата кодирования : UTC 2013-09-26 16:10:57
Программа кодирования : mkvmerge v5.8.0 ('No Sleep / Pillow') built on Sep 2 2012 15:37:04
Библиотека кодирования : libebml v1.2.3 + libmatroska v1.3.0

Видео
Идентификатор : 1
Формат : AVC
Формат/Информация : Advanced Video Codec
Профиль формата : High@L3.1
Настройки формата : CABAC / 3 Ref Frames
Параметр CABAC формата : Да
Параметр RefFrames формата : 3 кадра
Идентификатор кодека : V_MPEG4/ISO/AVC
Продолжительность : 49 м. 10 с.
Битрейт : 1800 Кбит/сек
Ширина : 1280 пикселей
Высота : 716 пикселей
Соотношение сторон : 16:9
Режим частоты кадров : Постоянный
Частота кадров : 25,000 кадров/сек
Цветовое пространство : YUV
Субдискретизация насыщенности : 4:2:0
Битовая глубина : 8 бит
Тип развёртки : Прогрессивная
Бит/(Пиксели*Кадры) : 0.079
Размер потока : 618 Мбайт (88%)
Библиотека кодирования : x264 core 120
Настройки программы : cabac=1 / ref=3 / deblock=1:0:0 / analyse=0x3:0x133 / me=umh / subme=7 / psy=1 / psy_rd=1.00:0.00 / mixed_ref=1 / me_range=32 / chroma_me=1 / trellis=2 / 8x8dct=1 / cqm=0 / deadzone=21,11 / fast_pskip=1 / chroma_qp_offset=-2 / threads=12 / sliced_threads=0 / nr=0 / decimate=1 / interlaced=0 / bluray_compat=0 / constrained_intra=0 / bframes=0 / weightp=0 / keyint=75 / keyint_min=26 / scenecut=40 / intra_refresh=0 / rc_lookahead=50 / rc=2pass / mbtree=0 / bitrate=1800 / ratetol=1.0 / qcomp=0.20 / qpmin=10 / qpmax=51 / qpstep=4 / cplxblur=20.0 / qblur=0.5 / vbv_maxrate=2000 / vbv_bufsize=2000 / nal_hrd=none / ip_ratio=1.40 / aq=1:1.00
Язык : Russian
Default : Да
Forced : Да
Цветовой диапазон : Limited
Основные цвета : BT.709
Характеристики трансфера : BT.709
Коэффициенты матрицы : BT.709

Аудио
Идентификатор : 2
Формат : AC-3
Формат/Информация : Audio Coding 3
Идентификатор кодека : A_AC3
Продолжительность : 49 м. 10 с.
Вид битрейта : Постоянный
Битрейт : 192 Кбит/сек
Каналы : 2 канала
Расположение каналов : Front: L R
Частота : 48,0 КГц
Частота кадров : 31,250 кадров/сек (1536 SPF)
Битовая глубина : 16 бит
Метод сжатия : С потерями
Размер потока : 67,5 Мбайт (10%)
Язык : Russian
ServiceKind/String : Complete Main
Default : Да
Forced : Да

pb.wtf



Скачать Шулер через торрент http://i5.imageban.ru/out/2013/09/26/8926711b7eec9f1250d02f50740e9035.jpg Скачать фильм Шулер через торрент бесплантно в хорошем качестве Описание: Дело происходит в Одессе в 1980 год. У Костика Волошина большие планы, он хочет удрать за кордон. У него двойная жизнь – ... 8.9 10 8
Info! Золотая раздача, скачанное не засчитывается.
Торрент: Зарегистрирован [2018-12-23 18:42] · скачан: 104 раз
Статус: √ проверено
Размер: 7.17 GB
Как cкачать? Как скачать Шулер через торрент | qTorrent

% Раздел Тема Автор DL S | L
Наши сериалы [ 6.59 GB ] Шулер Сезон:1 / Серии: 1-10 из 10 [2013 SATRip] Ворон Скачать
2 | 0


Последний раз редактировалось: bober100 (2019-01-19 18:16), всего редактировалось 3 раз(а)

28-11-2019 20:33  

Отключить всю рекламу на сайте

23-12-2018 21:10 Шулер Скачать торрент  

Огромное спасибо за этот шедевр , pb.wtf



24-12-2018 00:43 Шулер Скачать торрент  

отличный сериал, очень качественно передана атмосфера тех летpb.wtf



    Дорогой пользователь! Огромная просьба, поблагодарите релизера, оцените раздачу и оставьте свои комментарий, если Вы скачали Шулер через торрент бесплатно! Внесите свою лепту в развитие PiratBit!
    Комментировать посты могут только пользователи прошедшие не сложную регистрацию
    Показать сообщения:    

    Шулер через торрент
    Скачать бесплатно Шулер
    Шулер скачать торрент
    Шулер смотреть онлайн
    Cкачать фильм Шулер бесплатно
    Шулер скачать торрент в хорошем качестве
    Шулер смотреть онлайн бесплатно в хорошем качестве


    Вы не можете начинать темы
    Вы не можете отвечать на сообщения
    Вы не можете редактировать свои сообщения
    Вы не можете удалять свои сообщения
    Вы не можете голосовать в опросах
    Вы не можете прикреплять файлы к сообщениям
    Вы можете скачивать файлы