Ссылка на приватное зеркало нашего сайта всего за 1$. Внимание количество ограничено!!!

2 сезон

iTunes

1 сезон

1

2 сезон

2 сезон

iTunes

1 сезон

RePack

30

Новинка

ВАЖНО

ИГРА 18+

pack

RePack

MK11
pack

Забери бонус

RePack

jed

!!Акция!!

Alien_Rage

RePack

fifa19

RePack

Assassins Creed: Odyssey

RePack

NEED FOR SPEED™ PAYBACK

4 сезон

9 сезон

Бесстыжие 9 сезон

Все сериалы

все сериалы на PB.wtf

RePack

FAR CRY 5
  

Расправа / Reprisal (Брайан А Миллер) [2018, боевик, триллер, криминал, BD Remux 1080p] DUB [iTunes] pb.wtf

Расправа через торрент pb.wtf

Размер: 18.76 GB | Добавлен: 1 год 11 мес. назад | Торрент скачан:26 раз
Скачать  

24-12-2018 01:30 Расправа Скачать торрент  

Расправа / Reprisal
Год выпуска: 2018
Страна: США, Великобритания
Жанр: боевик, триллер, криминал
Продолжительность: 01:34:47
Перевод: Дублированный | iTunes
Субтитры: отсутствуют

Режиссер: Брайан А Миллер

rating

В ролях:

Брюс Уиллис, Фрэнк Грилло, Джонатон Шек, Оливия Калпо, Натали Юра, Дядя Мурда, Наталья Софи Батлер, Тайлер Джон Олсон, Уасс М. Стивенс, Колин Эглсфилд

Описание:

Служащему банка не даёт покоя жестокое ограбление, которое унесло жизнь его коллеги, и он решает выследить неуловимого и методичного грабителя-одиночку с помощью своего соседа - опытного полицейского на пенсии.

Качество: BD Remux 1080p
Формат: MKV

Видео: MPEG-4 AVC, 1920x1080, 24.1 Mbit/s, 23.976 fps
Аудио#1: 48 kHz, AC3, 5.1, 384 Kbps | iTunes | RUS |
Аудио#2: 48 kHz, DTS-HD MA, 5.1, 3873 Kbps | Оригинал | ENG |
скриншот  скриншот  скриншот  скриншот  скриншот  

General
Unique ID : 180092511984532388371115048740732002240 (0x877C8E60713AFA8CD12B1FD56F9BDFC0)
Complete name : D:Video111Reprisal.2018.BDREMUX.1080p.seleZen.mkv
Format : Matroska
Format version : Version 4
File size : 18.8 GiB
Duration : 1 h 34 min
Overall bit rate mode : Variable
Overall bit rate : 28.3 Mb/s
Movie name : Reprisal 2018 from селезень
Encoded date : UTC 2018-12-23 23:44:21
Writing application : mkvmerge v29.0.0 ('Like It Or Not') 64-bit
Writing library : libebml v1.3.6 + libmatroska v1.4.9

Video
ID : 1
Format : AVC
Format/Info : Advanced Video Codec
Format profile : High@L4.1
Format settings : CABAC / 3 Ref Frames
Format settings, CABAC : Yes
Format settings, ReFrames : 3 frames
Codec ID : V_MPEG4/ISO/AVC
Duration : 1 h 34 min
Bit rate mode : Variable
Bit rate : 24.1 Mb/s
Maximum bit rate : 35.0 Mb/s
Width : 1 920 pixels
Height : 1 080 pixels
Display aspect ratio : 16:9
Frame rate mode : Constant
Frame rate : 23.976 (24000/1001) FPS
Color space : YUV
Chroma subsampling : 4:2:0
Bit depth : 8 bits
Scan type : Progressive
Bits/(Pixel*Frame) : 0.484
Stream size : 15.9 GiB (85%)
Language : English
Default : Yes
Forced : No

Audio #1
ID : 2
Format : AC-3
Format/Info : Audio Coding 3
Commercial name : Dolby Digital
Codec ID : A_AC3
Duration : 1 h 34 min
Bit rate mode : Constant
Bit rate : 384 kb/s
Channel(s) : 6 channels
Channel layout : L R C LFE Ls Rs
Sampling rate : 48.0 kHz
Frame rate : 31.250 FPS (1536 SPF)
Bit depth : 16 bits
Compression mode : Lossy
Stream size : 260 MiB (1%)
Title : iTunes
Language : Russian
Service kind : Complete Main
Default : Yes
Forced : Yes

Audio #2
ID : 3
Format : DTS XLL
Format/Info : Digital Theater Systems
Commercial name : DTS-HD Master Audio
Codec ID : A_DTS
Duration : 1 h 34 min
Bit rate mode : Variable
Bit rate : 3 873 kb/s
Channel(s) : 6 channels
Channel layout : C L R Ls Rs LFE
Sampling rate : 48.0 kHz
Frame rate : 93.750 FPS (512 SPF)
Bit depth : 24 bits
Compression mode : Lossless
Stream size : 2.56 GiB (14%)
Title : Original
Language : English
Default : No
Forced : No

Menu
00:00:00.000 : en:Глава 01
00:08:24.337 : en:Глава 02
00:15:38.688 : en:Глава 03
00:22:52.121 : en:Глава 04
00:34:24.145 : en:Глава 05
00:40:55.495 : en:Глава 06
00:48:51.554 : en:Глава 07
00:56:23.630 : en:Глава 08
01:06:18.349 : en:Глава 09
01:15:42.663 : en:Глава 10
01:24:21.723 : en:Глава 11
01:31:52.590 : en:Глава 12

pb.wtf



Скачать Расправа через торрент http://img15.lostpic.net/2018/12/24/368b73ee5ef6f5598189422483fe5bdd.jpg Скачать фильм Расправа через торрент бесплантно в хорошем качестве Описание: Служащему банка не даёт покоя жестокое ограбление, которое унесло жизнь его коллеги, и он решает выследить неуловимого и ... 10 10 2
Торрент: Зарегистрирован [2018-12-24 01:30] · скачан: 26 раз
Статус: √ проверено
Размер: 18.76 GB
Как cкачать? Как скачать Расправа через торрент | qTorrent

% Раздел Тема Автор DL S | L
Зарубежные сериалы [ 4.96 GB ] Расправа / Reprisal / Сезон: 1 / Серии: 1-2 из 10 [2019 WEB-DL 1080p] MVO [Novamedia] bober100 Скачать
1 | 0
Зарубежные сериалы [ 2.42 GB ] Расправа / Reprisal / Сезон: 1 / Серии: 1-2 из 10 [2019 WEB-DL 720p] MVO [Novamedia] bober100 Скачать
1 | 0
Зарубежные сериалы [ 56.15 GB ] Расправа / Reprisal / Сезон: 1 / Серии: 1-10 из 10 [2019 UHD WEB-DL 2160p SDR] 2xMVO [Newstudio TVShows] bober100 Скачать
1 | 0
Зарубежные сериалы [ 8.56 GB ] Расправа / Reprisal / Сезон: 1 / Серии: 1-10 из 10 [2019 WEB-DLRip] MVO [TVShows] bober100 Скачать
1 | 0
Зарубежные сериалы [ 8.56 GB ] Расправа / Reprisal / Сезон: 1 / Серии: 1-10 из 10 [2019 WEBRip 720p] MVO [TVShows] bober100 Скачать
1 | 0
Зарубежные сериалы [ 14.67 GB ] Расправа / Reprisal / Сезон: 1 / Серии: 1-10 из 10 [2019 WEBRip 1080p] MVO [TVShows] bober100 Скачать
1 | 0
Зарубежные сериалы [ 15.13 GB ] Расправа / Reprisal / Сезон: 1 / Серии: 1-10 из 10 [2019 WEB-DL 1080p] MVO [Jaskier] bober100 Скачать
1 | 0

28-11-2019 20:33  

Отключить всю рекламу на сайте

    Дорогой пользователь! Огромная просьба, поблагодарите релизера, оцените раздачу и оставьте свои комментарий, если Вы скачали Расправа через торрент бесплатно! Внесите свою лепту в развитие PiratBit!
    Комментировать посты могут только пользователи прошедшие не сложную регистрацию
    Показать сообщения:    

    Расправа через торрент
    Скачать бесплатно Расправа
    Расправа скачать торрент
    Расправа смотреть онлайн
    Cкачать фильм Расправа бесплатно
    Расправа скачать торрент в хорошем качестве
    Расправа смотреть онлайн бесплатно в хорошем качестве


    Вы не можете начинать темы
    Вы не можете отвечать на сообщения
    Вы не можете редактировать свои сообщения
    Вы не можете удалять свои сообщения
    Вы не можете голосовать в опросах
    Вы не можете прикреплять файлы к сообщениям
    Вы можете скачивать файлы