Ссылка на приватное зеркало всего за 1$. Внимание количество ограничено!!!

OK

1+1

iTunes

мы

OK

1

WEB-DLRip

Джокер

Пифагор

Ведьмак / The Witcher сериал

iTunes

ПШазам

ОК

Оно 2

iTunes

30
pack

Вам бонус

ВАЖНО

!!Акция!!

Alien_RageХит недели

RePack

Resident Evil 21

ИГРА 18+

pack

RePack

jed

RePack

fifa19

RePack

Assassins Creed: Odyssey

RePack

NEED FOR SPEED™ PAYBACK

4 сезон

9 сезон

Бесстыжие 9 сезон

Все сериалы

все сериалы на PB.wtf

RePack

FAR CRY 5
  

Рождество дома / Homegrown Christmas (Мэл Дэмски) [2018, Мелодрама, HDTVRip 720p] MVO ["Синема УС"] pb.wtf

Рождество дома через торрент pb.wtf

Размер: 2.88 GB | Добавлен: 1 год 1 мес. назад | Торрент скачан:20 раз
Скачать  

24-12-2018 06:46 Рождество дома Скачать торрент  

Рождество дома / Homegrown ChristmasГод выпуска: 2018
Страна: США
Жанр: Мелодрама
Продолжительность: 01:24:59
Перевод: Любительский (многоголосый) | "Синема УС"
Субтитры: отсутствуют

Режиссер: Мэл Дэмски

rating

В ролях:

Лори Лафлин, Виктор Уэбстер, Гвинит Уолш, Изабелла Джаннулли, Мэтт Хэмилтон, Кэтерин Исаак, Адриан Петрив, Сунита Прасад, Лондон Робертсон, Элизабет Вайнштейн

Описание:

После того,как Мэдди(Лори Лафлин) перестает возглавлять компанию,работа в которой долгое время была ее мечтой, она решает поехать в свой родной городок на праздники,надеясь,что ситуация в ее жизни прояснится. Там она встречает свою школьную любовь Картера(Виктор Вебстер),и между ними быстро вновь вспыхивает искра. Оба они ответственны за организацию школьного рождественского бала,и во время всех приготовлений к нему,они забывают то,что отличает их друг от друга, зато вспоминают,почему они когда-то полюбили друг друга.

Качество: HDTVRip 720p
Формат: MKV

Видео: h.264, 4 458 Кбит/с, 1280x720
Аудио#1: Русский, (AC3, 2 ch, 384 Кбит/с)
скриншот  скриншот  скриншот  

Общее
Уникальный идентификатор : 213957667337326093523033128979660752359 (0xA0F6BF7227BA51DC9B056959AFDF45E7)
Полное имя : D:\Hhomegrown.christmas.2018.Pa.HDTV.72Op.mkv
Формат : Matroska
Версия формата : Version 2
Размер файла : 2,88 Гбайт
Продолжительность : 1 ч. 25 м.
Режим общего битрейта : Переменный
Общий поток : 4844 Кбит/сек
Дата кодирования : UTC 2018-12-22 20:20:57
Программа кодирования : mkvmerge v8.3.0 ('Over the Horizon') 64bit
Библиотека кодирования : libebml v1.3.1 + libmatroska v1.4.2

Видео
Идентификатор : 1
Формат : AVC
Формат/Информация : Advanced Video Codec
Профиль формата : High@L4.1
Параметр CABAC формата : Да
Параметр RefFrames формата : 4 кадра
Идентификатор кодека : V_MPEG4/ISO/AVC
Продолжительность : 1 ч. 25 м.
Вид битрейта : Переменный
Битрейт : 4458 Кбит/сек
Максимальный битрейт : 5000 Кбит/сек
Ширина : 1280 пикселей
Высота : 720 пикселей
Соотношение сторон : 16:9
Режим частоты кадров : Постоянный
Частота кадров : 23,976 (24000/1001) кадра/сек
Стандарт вещания : Component
Цветовое пространство : YUV
Субдискретизация насыщенности : 4:2:0
Битовая глубина : 8 бит
Тип развёртки : Прогрессивная
Бит/(Пиксели*Кадры) : 0.197
Размер потока : 2,59 Гбайт (90%)
Default : Да
Forced : Нет
Цветовой диапазон : Limited
Основные цвета : BT.709
Характеристики трансфера : BT.709
Коэффициенты матрицы : BT.709

Аудио
Идентификатор : 2
Формат : AC-3
Формат/Информация : Audio Coding 3
Расширение режима : CM (complete main)
Параметр Endianness формата : Big
Идентификатор кодека : A_AC3
Продолжительность : 1 ч. 25 м.
Вид битрейта : Постоянный
Битрейт : 384 Кбит/сек
Каналы : 2 канала
Расположение каналов : Front: L R
Частота : 48,0 КГц
Частота кадров : 31,250 кадров/сек (1536 spf)
Метод сжатия : С потерями
Размер потока : 233 Мбайт (8%)
Default : Да
Forced : Нет

pb.wtf



Скачать Рождество дома через торрент http://img15.lostpic.net/2018/12/24/a57050f315052b84437043c427a95067.jpg Скачать фильм Рождество дома через торрент бесплантно в хорошем качестве Описание: После того,как Мэдди(Лори Лафлин) перестает возглавлять компанию,работа в которой долгое время была ее мечтой, она решает поехать ... 7.8 10 4
Торрент: Зарегистрирован [2018-12-24 06:46] · скачан: 20 раз
Статус: T временная
Размер: 2.88 GB
Как cкачать? Как скачать Рождество дома через торрент | qTorrent

% Раздел Тема Автор DL S | L
T Фильмы (мультфильмы) cо спонсором показа (Новинки AVI/MKV) [ 1.37 GB ] Рождество дома / Homegrown Christmas [2018 Мело HDTVRip] MVO ["Синема УС"] bober100 Скачать
2 | 0

28-11-2019 20:33  

Отключить всю рекламу на сайте

    Дорогой пользователь! Огромная просьба, поблагодарите релизера, оцените раздачу и оставьте свои комментарий, если Вы скачали Рождество дома через торрент бесплатно! Внесите свою лепту в развитие PiratBit!
    Комментировать посты могут только пользователи прошедшие не сложную регистрацию
    Показать сообщения:    

    Рождество дома через торрент
    Скачать бесплатно Рождество дома
    Рождество дома скачать торрент
    Рождество дома смотреть онлайн
    Cкачать фильм Рождество дома бесплатно
    Рождество дома скачать торрент в хорошем качестве
    Рождество дома смотреть онлайн бесплатно в хорошем качестве


    Вы не можете начинать темы
    Вы не можете отвечать на сообщения
    Вы не можете редактировать свои сообщения
    Вы не можете удалять свои сообщения
    Вы не можете голосовать в опросах
    Вы не можете прикреплять файлы к сообщениям
    Вы можете скачивать файлы