Ссылка на приватное зеркало нашего сайта всего за 1$. Внимание количество ограничено!!!

2 сезон

iTunes

1 сезон

1

2 сезон

2 сезон

iTunes

1 сезон

RePack

30

Ultimate

ВАЖНО

ИГРА 18+

pack

RePack

MK11
pack

Забери бонус

RePack

jed

!!Акция!!

Alien_Rage

RePack

fifa19

RePack

Assassins Creed: Odyssey

RePack

NEED FOR SPEED™ PAYBACK

4 сезон

9 сезон

Бесстыжие 9 сезон

Все сериалы

все сериалы на PB.wtf

RePack

FAR CRY 5
  

Эль Кукуй / Cucuy: The Boogeyman (Питер Салливан) [2018 г., Триллер, HDTVRip, Любительский (двухголосый закадровый) | HiWay Grope] pb.wtf

Эль Кукуй через торрент pb.wtf

Размер: 1.39 GB | Добавлен: 1 год 11 мес. назад | Торрент скачан:149 раз
Скачать  

24-12-2018 06:50 Эль Кукуй Скачать торрент  

Эль Кукуй / Cucuy: The Boogeyman
Год выпуска: 2018
Страна: США / SYFY
Жанр: Триллер
Продолжительность: 01:25:30
Перевод: Любительский (двухголосый закадровый) HiWayGrope
Примечание: Релиз без рекламы
Субтитры: Отсутствуют

Режиссер: Питер Салливан

rating

В ролях: Марисоль Николс, Брайан Краузе, Белла Стайн, Мик Игнис, Джэк Эрди, Изабель Грэвитт, Джеймс Склена и др

Описание: В маленьком городе начинают таинственным образом пропадать дети. Полиция бессильна, а среди местных жителей ползут слухи, что похищения - это дело рук Эль Кукуи - зловещего бугимена из детских сказок. Однако, подросток-бунтарь Софи считает, что исчезновения связаны с их мрачным новым соседом и решает докопаться до истины.

Качество: HDTVRip
Формат: AVI
Видео кодек: XviD
Аудио кодек: AC3
Видео: Xvid, 720x404, ~1930 Kbps
Аудио#1: AC3, 6 ch, 384 Kbps
скриншот   скриншот   скриншот   скриншот  

Общее
Полное имя : D:\FILMЬl\Cucuy_The Boogeyman.2018.avi
Формат : AVI
Формат/Информация : Audio Video Interleave
Размер файла : 1,39 Гбайт
Продолжительность : 1 ч. 25 м.
Общий поток : 2324 Кбит/сек
Программа кодирования : VirtualDubMod 1.10.5ru (build 2550/release)
Библиотека кодирования : VirtualDubMod build 2550/release

Видео
Идентификатор : 0
Формат : MPEG-4 Visual
Профиль формата : Advanced Simple@L5
Настройки формата : BVOP1 / Custom Matrix
Параметр BVOP формата : 1
Параметр QPel формата : Нет
Параметр GMC формата : Без точки перехода
Параметр матрицы формата : Выборочная
Идентификатор кодека : XVID
Идентификатор кодека/Подсказка : XviD
Продолжительность : 1 ч. 25 м.
Битрейт : 1930 Кбит/сек
Ширина : 720 пикселей
Высота : 404 пикселя
Соотношение сторон : 16:9
Частота кадров : 23,976 (24000/1001) кадра/сек
Цветовое пространство : YUV
Субдискретизация насыщенности : 4:2:0
Битовая глубина : 8 бит
Тип развёртки : Прогрессивная
Метод сжатия : С потерями
Бит/(Пиксели*Кадры) : 0.277
Размер потока : 1,15 Гбайт (83%)
Библиотека кодирования : XviD 67

Аудио
Идентификатор : 1
Формат : AC-3
Формат/Информация : Audio Coding 3
Коммерческое название : Dolby Digital
Идентификатор кодека : 2000
Продолжительность : 1 ч. 25 м.
Вид битрейта : Постоянный
Битрейт : 384 Кбит/сек
Каналы : 6 каналов
Channel layout : L R C LFE Ls Rs
Частота : 48,0 КГц
Частота кадров : 31,250 кадров/сек (1536 SPF)
Битовая глубина : 16 бит
Метод сжатия : С потерями
Размер потока : 235 Мбайт (17%)
Выравнивание : Разделение по промежуткам
Продолжительность промежутка : 42 мс. (1,00 видеокадр)
Время предзагрузки промежутка : 500 мс.
ServiceKind/String : Complete Main

pb.wtf



Скачать Эль Кукуй через торрент http://pic1.kartinco.top/images/12/1fceb.jpg Скачать фильм Эль Кукуй через торрент бесплантно в хорошем качестве Описание: В маленьком городе начинают таинственным образом пропадать дети. Полиция бессильна, а среди местных жителей ползут слухи, что ... 9 10 9
Торрент: Зарегистрирован [2018-12-24 06:50] · скачан: 149 раз
Статус: T временная
Размер: 1.39 GB
Как cкачать? Как скачать Эль Кукуй через торрент | qTorrent



Последний раз редактировалось: oleg8 (2018-12-24 08:27), всего редактировалось 2 раз(а)

28-11-2019 20:33  

Отключить всю рекламу на сайте

24-12-2018 07:26 Эль Кукуй Скачать торрент  

oleg8, Перевод: Любительский (двухголосый закадровый) | HiWay Gropepb.wtf



24-12-2018 15:13 Эль Кукуй Скачать торрент  

Когда посмотрел семпл чуть не упал со смеху . Знали б америкосы на какое слово это похоже по русски . Кукуй - это просто шедеврально !Качество кстати хорошее / Скачаю , чисто поржать.pb.wtf



24-12-2018 16:05 Эль Кукуй Скачать торрент  

видел кто Кукуя отпишитесь!)pb.wtf



25-12-2018 16:13 Эль Кукуй Скачать торрент  

думал фильм про «Тони» Фергюсона, как оказалось нетpb.wtf



26-12-2018 12:44 Эль Кукуй Скачать торрент  

я представляю что там кукуй вытворяет pb.wtf



27-12-2018 10:35 Эль Кукуй Скачать торрент  

bold_666@mail.ru писал(а):

думал фильм про «Тони» Фергюсона, как оказалось нет

аналогичноpb.wtf



28-12-2018 12:00 Эль Кукуй Скачать торрент  

Может на кукуи все эти фильмы от суйфуй pb.wtf



02-01-2019 09:32 Эль Кукуй Скачать торрент  

Эль Хуху* pb.wtf



09-02-2019 12:58 Эль Кукуй Скачать торрент  

bold_666@mail.ru писал(а):

думал фильм про «Тони» Фергюсона, как оказалось нет

pb.wtf



    Дорогой пользователь! Огромная просьба, поблагодарите релизера, оцените раздачу и оставьте свои комментарий, если Вы скачали Эль Кукуй через торрент бесплатно! Внесите свою лепту в развитие PiratBit!
    Комментировать посты могут только пользователи прошедшие не сложную регистрацию
    Показать сообщения:    

    Эль Кукуй через торрент
    Скачать бесплатно Эль Кукуй
    Эль Кукуй скачать торрент
    Эль Кукуй смотреть онлайн
    Cкачать фильм Эль Кукуй бесплатно
    Эль Кукуй скачать торрент в хорошем качестве
    Эль Кукуй смотреть онлайн бесплатно в хорошем качестве


    Вы не можете начинать темы
    Вы не можете отвечать на сообщения
    Вы не можете редактировать свои сообщения
    Вы не можете удалять свои сообщения
    Вы не можете голосовать в опросах
    Вы не можете прикреплять файлы к сообщениям
    Вы можете скачивать файлы