Ссылка на приватное зеркало всего за 1$. Внимание количество ограничено!!!

OK

1+1

iTunes

мы

OK

1

WEB-DLRip

Джокер

Пифагор

Ведьмак / The Witcher сериал

iTunes

ПШазам

ОК

Оно 2

iTunes

30
pack

Вам бонус

ВАЖНО

!!Акция!!

Alien_RageХит недели

RePack

Resident Evil 21

ИГРА 18+

pack

RePack

jed

RePack

fifa19

RePack

Assassins Creed: Odyssey

RePack

NEED FOR SPEED™ PAYBACK

4 сезон

9 сезон

Бесстыжие 9 сезон

Все сериалы

все сериалы на PB.wtf

RePack

FAR CRY 5
  

Кукловод / He's Out There (Куинн Лэшер) [2018, ужасы, триллер, BDRip 720p] DUB [Line] pb.wtf

Кукловод через торрент pb.wtf

Размер: 4.49 GB | Добавлен: 1 год 1 мес. назад | Торрент скачан:79 раз
Скачать  

24-12-2018 07:14 Кукловод Скачать торрент  

Кукловод / He's Out There Год выпуска: 2018
Страна: США
Жанр: ужасы, триллер
Продолжительность: 01:30:30
Перевод: Дублированный | Line
Субтитры: отсутствуют

Режиссер: Куинн Лэшер

rating

В ролях:

Ивонн Страховски, Анна Пнёвски, Эбигейл Пнёвски, Райан Макдональд, Джастин Брюнинг, Джулиан Бэйли, Стефани Коста

Описание:

Отправившись отдыхать в уединенный домик у озера, мать и две ее маленькие дочери даже не подозревают, что попали в изощренную ловушку, спланированную психопатом в маске.

Качество: BDRip 720p
Формат: MKV

Видео: h.264,6 659 Кбит/с, 1280x536
Аудио#1: Русский (AC3, 2 ch, 448 Кбит/с)
скриншот  скриншот  скриншот  

Общее
Уникальный идентификатор : 191462020910589000125383646561341145820 (0x900A3E7218759A47918218C1A8DE02DC)
Полное имя : D:\Hes.Out.There.2018.D.BDRip.72Op.mkv
Формат : Matroska
Версия формата : Version 2
Размер файла : 4,49 Гбайт
Продолжительность : 1 ч. 30 м.
Режим общего битрейта : Переменный
Общий поток : 7109 Кбит/сек
Дата кодирования : UTC 2018-12-23 07:22:16
Программа кодирования : mkvmerge v8.3.0 ('Over the Horizon') 64bit
Библиотека кодирования : libebml v1.3.1 + libmatroska v1.4.2

Видео
Идентификатор : 1
Формат : AVC
Формат/Информация : Advanced Video Codec
Профиль формата : High@L4.1
Параметр CABAC формата : Да
Параметр RefFrames формата : 4 кадра
Идентификатор кодека : V_MPEG4/ISO/AVC
Продолжительность : 1 ч. 30 м.
Вид битрейта : Переменный
Битрейт : 6659 Кбит/сек
Максимальный битрейт : 7500 Кбит/сек
Ширина : 1280 пикселей
Высота : 536 пикселей
Соотношение сторон : 2,40:1
Режим частоты кадров : Постоянный
Частота кадров : 23,976 (24000/1001) кадра/сек
Стандарт вещания : Component
Цветовое пространство : YUV
Субдискретизация насыщенности : 4:2:0
Битовая глубина : 8 бит
Тип развёртки : Прогрессивная
Бит/(Пиксели*Кадры) : 0.396
Размер потока : 4,12 Гбайт (92%)
Default : Да
Forced : Нет
Цветовой диапазон : Limited
Основные цвета : BT.709
Характеристики трансфера : BT.709
Коэффициенты матрицы : BT.709

Аудио
Идентификатор : 2
Формат : AC-3
Формат/Информация : Audio Coding 3
Расширение режима : CM (complete main)
Параметр Endianness формата : Big
Идентификатор кодека : A_AC3
Продолжительность : 1 ч. 30 м.
Вид битрейта : Постоянный
Битрейт : 448 Кбит/сек
Каналы : 2 канала
Расположение каналов : Front: L R
Частота : 48,0 КГц
Частота кадров : 31,250 кадров/сек (1536 spf)
Метод сжатия : С потерями
Размер потока : 290 Мбайт (6%)
Default : Да
Forced : Нет

pb.wtf



Скачать Кукловод через торрент https://a.radikal.ru/a05/1812/b6/ed70ac0845bf.jpg Скачать фильм Кукловод через торрент бесплантно в хорошем качестве Описание: Отправившись отдыхать в уединенный домик у озера, мать и две ее маленькие дочери даже не подозревают, что попали в изощренную ... 10 10 3
Торрент: Зарегистрирован [2018-12-24 07:14] · скачан: 79 раз
Статус: # сомнительно
Размер: 4.49 GB
Как cкачать? Как скачать Кукловод через торрент | qTorrent

28-11-2019 20:33  

Отключить всю рекламу на сайте

    Дорогой пользователь! Огромная просьба, поблагодарите релизера, оцените раздачу и оставьте свои комментарий, если Вы скачали Кукловод через торрент бесплатно! Внесите свою лепту в развитие PiratBit!
    Комментировать посты могут только пользователи прошедшие не сложную регистрацию
    Показать сообщения:    

    Кукловод через торрент
    Скачать бесплатно Кукловод
    Кукловод скачать торрент
    Кукловод смотреть онлайн
    Cкачать фильм Кукловод бесплатно
    Кукловод скачать торрент в хорошем качестве
    Кукловод смотреть онлайн бесплатно в хорошем качестве


    Вы не можете начинать темы
    Вы не можете отвечать на сообщения
    Вы не можете редактировать свои сообщения
    Вы не можете удалять свои сообщения
    Вы не можете голосовать в опросах
    Вы не можете прикреплять файлы к сообщениям
    Вы можете скачивать файлы