Ссылка на приватное зеркало всего за 1$. Внимание количество ограничено!!!

iTunes

iTunes

iTunes

1

iTunes

iTunes

iTunes

iTunes

iTunes

30
pack

Новость дня

ВАЖНО

!!Акция!!

Alien_RageХит недели

RePack

Resident Evil 21

ИГРА 18+

pack

RePack

jed

!!Акция!!

Alien_Rage

RePack

fifa19

RePack

Assassins Creed: Odyssey

RePack

NEED FOR SPEED™ PAYBACK

4 сезон

9 сезон

Бесстыжие 9 сезон

Все сериалы

все сериалы на PB.wtf

RePack

FAR CRY 5
  

Проигранное место (Надежда Михалкова) [2018 г., Ужасы, WEBRip] pb.wtf

Проигранное место через торрент pb.wtf

Размер: 1.37 GB | Добавлен: 1 год 5 мес. назад | Торрент скачан:341 раз
Скачать  

24-12-2018 07:25 Проигранное место Скачать торрент  

Проигранное место
Год выпуска: 2018
Страна: Россия
Жанр: Ужасы
Продолжительность: 01:31:46
Субтитры: Отсутствуют

Режиссер: Надежда Михалкова

rating

В ролях: Анна Михалкова, Алексей Дякин, Ирина Мартыненко, Алексей Мартынов, Никита Еленев, Сергей Городничий, Валентина Ляпина, Анастасия Акатова, Арам Вардеванян, Ольга Озоллапиня ...

Описание: Среди старшеклассников бытует легенда о «проигранном месте» в кинотеатре — говорят, что каждый, кто покупает туда билет, обречен на смерть. Никто не воспринимает эту историю всерьез, но вскоре серия жутких убийств заставляет компанию друзей вспомнить о зловещей легенде. Старшеклассники начинают собственное расследование, но сами оказываются под подозрением. Загнанные в ловушку страхом и недоверием друзья решают бросить вызов призраку «проигранного места».

Качество: WEBRip
Формат: AVI
Видео кодек: XviD
Аудио кодек: AC3
Видео: XviD, 720x368, 29.970 fps, 1933 Kbps
Аудио#1: AC-3, 2 ch, 192 Kbps
скриншот   скриншот   скриншот   скриншот  

General
Complete name : Проигранное.место.2018.WEBRip.NNMClub.avi
Format : AVI
Format/Info : Audio Video Interleave
File size : 1.37 GiB
Duration : 1 h 31 min
Overall bit rate : 2 136 kb/s
Writing application : Lavf58.20.100
Writing library : VirtualDub build 35491/release

Video
ID : 0
Format : MPEG-4 Visual
Format profile : Advanced Simple@L5
Format settings : BVOP2
Format settings, BVOP : 2
Format settings, QPel : No
Format settings, GMC : No warppoints
Format settings, Matrix : Default (MPEG)
Codec ID : XVID
Codec ID/Hint : XviD
Duration : 1 h 31 min
Bit rate : 1 933 kb/s
Width : 720 pixels
Height : 368 pixels
Display aspect ratio : 1.957
Frame rate : 29.970 (30000/1001) FPS
Color space : YUV
Chroma subsampling : 4:2:0
Bit depth : 8 bits
Scan type : Progressive
Compression mode : Lossy
Bits/(Pixel*Frame) : 0.243
Stream size : 1.24 GiB (90%)
Writing library : XviD 67

Audio
ID : 1
Format : AC-3
Format/Info : Audio Coding 3
Commercial name : Dolby Digital
Codec ID : 2000
Duration : 1 h 31 min
Bit rate mode : Constant
Bit rate : 192 kb/s
Channel(s) : 2 channels
Channel layout : L R
Sampling rate : 44.1 kHz
Frame rate : 28.711 FPS (1536 SPF)
Bit depth : 16 bits
Compression mode : Lossy
Stream size : 126 MiB (9%)
Alignment : Aligned on interleaves
Interleave, duration : 35 ms (1.04 video frame)
Interleave, preload duratio : 522 ms
Service kind : Complete Main

pb.wtf



Скачать Проигранное место через торрент http://pic1.kartinco.top/images/12/21z3i.jpg Скачать фильм Проигранное место через торрент бесплантно в хорошем качестве Описание: Среди старшеклассников бытует легенда о «проигранном месте» в кинотеатре — говорят, что каждый, кто покупает туда билет, обречен ... 9 10 16
Info! Золотая раздача, скачанное не засчитывается.
Торрент: Зарегистрирован [2018-12-24 07:25] · скачан: 341 раз
Статус: T временная
Размер: 1.37 GB
Как cкачать? Как скачать Проигранное место через торрент | qTorrent

% Раздел Тема Автор DL S | L
Наши новые фильмы 2018-2019 [ 1.46 GB ] Проигранное место [2018 WEB-DLRip] bober100 Скачать
3 | 0
Наши фильмы (HD, WEB-DL 720p, 1080p) [ 3.52 GB ] Проигранное место [2018 WEB-DL 1080p] bober100 Скачать
3 | 0

28-11-2019 20:33  

Отключить всю рекламу на сайте

03-03-2020 04:19 Проигранное место Скачать торрент  

Топик был перенесен из форума Наши новые фильмы 2018-2019 в форум Для поглощённых раздач

Причина переноса: Проигранное место
bober100pb.wtf



    Дорогой пользователь! Огромная просьба, поблагодарите релизера, оцените раздачу и оставьте свои комментарий, если Вы скачали Проигранное место через торрент бесплатно! Внесите свою лепту в развитие PiratBit!
    Комментировать посты могут только пользователи прошедшие не сложную регистрацию
    Показать сообщения:    

    Проигранное место через торрент
    Скачать бесплатно Проигранное место
    Проигранное место скачать торрент
    Проигранное место смотреть онлайн
    Cкачать фильм Проигранное место бесплатно
    Проигранное место скачать торрент в хорошем качестве
    Проигранное место смотреть онлайн бесплатно в хорошем качестве


    Вы не можете начинать темы
    Вы не можете отвечать на сообщения
    Вы не можете редактировать свои сообщения
    Вы не можете удалять свои сообщения
    Вы не можете голосовать в опросах
    Вы не можете прикреплять файлы к сообщениям
    Вы можете скачивать файлы