Ссылка на приватное зеркало всего за 1$. Внимание количество ограничено!!!

OK

1+1

iTunes

мы

OK

1

WEB-DLRip

Джокер

Пифагор

Ведьмак / The Witcher сериал

Лицензия

ПШазам

ОК

Оно 2

iTunes

30
pack

Вам бонус

ВАЖНО

!!Акция!!

Alien_RageХит недели

RePack

Resident Evil 21

ИГРА 18+

pack

RePack

jed

RePack

fifa19

RePack

Assassins Creed: Odyssey

RePack

NEED FOR SPEED™ PAYBACK

4 сезон

9 сезон

Бесстыжие 9 сезон

Все сериалы

все сериалы на PB.wtf

RePack

FAR CRY 5
  

Лукас / Lukas (Жюльен Леклерк) [2018 г., Боевик, драма, BDRip 1080p, HEVC, Профессиональный (многоголосый)(iTunes)] pb.wtf

Лукас через торрент pb.wtf

Размер: 3 GB | Добавлен: 1 год назад | Торрент скачан:208 раз
Скачать  

24-12-2018 07:46 Лукас Скачать торрент  

Лукас / Lukas
Год выпуска: 2018
Страна: Франция, Бельгия
Жанр: Боевик, драма
Продолжительность: 01:34:35
Перевод: Профессиональный (многоголосый)(iTunes)
Субтитры: Нет

Режиссер: Жюльен Леклерк

rating

В ролях: Жан-Клод Ван Дамм, Свева Альвити, Сами Буажила, Сэм Лаувейк, Каарис, Кевин Янссенс

Описание: На что ты готов ради дочери? Герою придется ответить на этот вопрос, столкнувшись лицом к лицу с полицией, мафией и Интерполом.
Доп. информация: -
H.265/HEVC (High Efficiency Video Coding) - это новый стандарт кодирования видео.
- Стандарт H.265/HEVC является логическим продолжением стандарта
H.264/AVC (Advanced Video Coding), и характеризуется более эффективными
алгоритмами сжатия, а также поддержкой высокого разрешения вплоть до 8K UHD
(8192x4320). Первая версия стандарта H.265 была опубликована в начале 2013 года.
- Рипы в фомате HEVC поддерживается не всеми аппаратными проигрывателями.
- Для корректного воспроизведения может потребоваться обновление ПО.
- Владельцам несовместимого железа просьба не беспокоить,
есть альтернативные релизы.
Качество: BDRip 1080p
Формат: MKV
Видео кодек: H.265
Аудио кодек: AC3
Видео: 1920x804, ~3521 Kbps
Аудио#1: AC3, 6 ch, 384 Kbps - MVO
Аудио#2: C3, 6 ch, 640 Kbps - Французский


Общее
Уникальный идентификатор : 272267984397469791593989465017269008445 (0xCCD4E80A26DD3E6AB1142C5A3402B83D)
Полное имя : F:\РАЗДАЧИ\lukas hevc 1080p.mkv
Формат : Matroska
Версия формата : Version 4 / Version 2
Размер файла : 3,00 Гбайт
Продолжительность : 1 ч. 34 м.
Общий поток : 4547 Кбит/сек
Название фильма : Lukas
Дата кодирования : UTC 2018-12-23 07:56:15
Программа кодирования : mkvmerge v27.0.0 ('Metropolis') 64-bit
Библиотека кодирования : libebml v1.3.6 + libmatroska v1.4.9

Видео
Идентификатор : 1
Формат : HEVC
Формат/Информация : High Efficiency Video Coding
Профиль формата : Main@L4@High
Идентификатор кодека : V_MPEGH/ISO/HEVC
Продолжительность : 1 ч. 34 м.
Битрейт : 3521 Кбит/сек
Ширина : 1920 пикселей
Высота : 804 пикселя
Соотношение сторон : 2,40:1
Режим частоты кадров : Постоянный
Частота кадров : 24,000 кадра/сек
Цветовое пространство : YUV
Субдискретизация насыщенности : 4:2:0
Битовая глубина : 8 бит
Бит/(Пиксели*Кадры) : 0.095
Размер потока : 2,33 Гбайт (77%)
Заголовок : Lukas (2018) - Encoded by Immortel
Библиотека кодирования : x265 2.9+2-7e978ed93d60:[Windows][MSVC 1900][64 bit] 8bit+10bit+12bit
Настройки программы : cpuid=1111039 / frame-threads=2 / numa-pools=4 / wpp / pmode / no-pme / no-psnr / no-ssim / log-level=2 / input-csp=1 / input-res=1920x804 / interlace=0 / total-frames=136216 / level-idc=40 / high-tier=1 / uhd-bd=0 / ref=5 / no-allow-non-conformance / repeat-headers / annexb / aud / hrd / info / hash=0 / no-temporal-layers / no-open-gop / min-keyint=24 / keyint=240 / gop-lookahead=0 / bframes=6 / b-adapt=2 / b-pyramid / bframe-bias=0 / rc-lookahead=60 / lookahead-slices=1 / scenecut=40 / radl=0 / no-intra-refresh / ctu=64 / min-cu-size=8 / no-rect / no-amp / max-tu-size=32 / tu-inter-depth=2 / tu-intra-depth=4 / limit-tu=0 / rdoq-level=0 / dynamic-rd=0.00 / no-ssim-rd / signhide / no-tskip / nr-intra=0 / nr-inter=0 / no-constrained-intra / no-strong-intra-smoothing / max-merge=5 / limit-refs=1 / no-limit-modes / me=3 / subme=4 / merange=57 / temporal-mvp / weightp / weightb / no-analyze-src-pics / deblock=0:0 / no-sao / no-sao-non-deblock / rd=4 / no-early-skip / no-rskip / no-fast-intra / no-tskip-fast / no-cu-lossless / no-b-intra / no-splitrd-skip / rdpenalty=0 / psy-rd=1.00 / psy-rdoq=0.00 / no-rd-refine / no-lossless / cbqpoffs=0 / crqpoffs=0 / rc=crf / crf=17.0 / qcomp=0.60 / qpstep=4 / stats-write=0 / stats-read=0 / vbv-maxrate=30000 / vbv-bufsize=30000 / vbv-init=0.9 / crf-max=0.0 / crf-min=0.0 / ipratio=1.40 / pbratio=1.30 / aq-mode=2 / aq-strength=1.00 / no-cutree / zone-count=0 / no-strict-cbr / qg-size=32 / no-rc-grain / qpmax=69 / qpmin=0 / no-const-vbv / sar=1 / overscan=0 / videoformat=5 / range=0 / colorprim=1 / transfer=1 / colormatrix=1 / chromaloc=0 / display-window=0 / max-cll=0,0 / min-luma=0 / max-luma=255 / log2-max-poc-lsb=8 / vui-timing-info / vui-hrd-info / slices=1 / no-opt-qp-pps / no-opt-ref-list-length-pps / no-multi-pass-opt-rps / scenecut-bias=0.05 / no-opt-cu-delta-qp / aq-motion / no-hdr / no-hdr-opt / no-dhdr10-opt / no-idr-recovery-sei / analysis-reuse-level=5 / scale-factor=0 / refine-intra=0 / refine-inter=0 / refine-mv=0 / no-limit-sao / ctu-info=0 / no-lowpass-dct / refine-mv-type=0 / copy-pic=1 / max-ausize-factor=1.0 / no-dynamic-refine / no-single-sei
Default : Да
Forced : Да
Цветовой диапазон : Limited
Основные цвета : BT.709
Характеристики трансфера : BT.709
Коэффициенты матрицы : BT.709

Аудио #1
Идентификатор : 2
Формат : AC-3
Формат/Информация : Audio Coding 3
Идентификатор кодека : A_AC3
Продолжительность : 1 ч. 34 м.
Вид битрейта : Постоянный
Битрейт : 384 Кбит/сек
Каналы : 6 каналов
Расположение каналов : Front: L C R, Side: L R, LFE
Частота : 48,0 КГц
Частота кадров : 31,250 кадров/сек (1536 SPF)
Битовая глубина : 16 бит
Метод сжатия : С потерями
Размер потока : 260 Мбайт (8%)
Заголовок : Multi VoiceOver (iTunes)
Язык : Russian
ServiceKind/String : Complete Main
Default : Да
Forced : Да

Аудио #2
Идентификатор : 3
Формат : AC-3
Формат/Информация : Audio Coding 3
Идентификатор кодека : A_AC3
Продолжительность : 1 ч. 34 м.
Вид битрейта : Постоянный
Битрейт : 640 Кбит/сек
Каналы : 6 каналов
Расположение каналов : Front: L C R, Side: L R, LFE
Частота : 48,0 КГц
Частота кадров : 31,250 кадров/сек (1536 SPF)
Битовая глубина : 16 бит
Метод сжатия : С потерями
Размер потока : 433 Мбайт (14%)
Заголовок : Original
Язык : French
ServiceKind/String : Complete Main
Default : Нет
Forced : Нет

Меню
00:00:00.000 : fr:00:00:00.000
00:06:59.833 : fr:00:06:59.833
00:12:25.958 : fr:00:12:25.958
00:18:58.417 : fr:00:18:58.417
00:25:26.583 : fr:00:25:26.583
00:33:09.125 : fr:00:33:09.125
00:40:01.000 : fr:00:40:01.000
00:44:06.625 : fr:00:44:06.625
00:51:24.458 : fr:00:51:24.458
00:56:45.708 : fr:00:56:45.708
01:03:19.958 : fr:01:03:19.958
01:09:58.542 : fr:01:09:58.542
01:15:33.917 : fr:01:15:33.917
01:21:31.500 : fr:01:21:31.500
01:29:18.292 : fr:01:29:18.292

pb.wtf



Скачать Лукас через торрент http://img15.lostpic.net/2018/12/24/e542dc149498b678b5acc1780a615dcb.jpg Скачать фильм Лукас через торрент бесплантно в хорошем качестве Описание: На что ты готов ради дочери? Герою придется ответить на этот вопрос, столкнувшись лицом к лицу с полицией, мафией и ... 9.8 10 4
Info! Золотая раздача, скачанное не засчитывается.
Торрент: Зарегистрирован [2018-12-24 07:46] · скачан: 208 раз
Статус: √ проверено
Размер: 3 GB
Как cкачать? Как скачать Лукас через торрент | qTorrent

% Раздел Тема Автор DL S | L
Фильмы 2017 [DVDrip, WEB-DLRip, HDrip] (DUB, MVO) [ 1.45 GB ] Ведьмы / Hagazussa [2017 HDRip-AVC] Dub [Новамедиа] sokol_ok Скачать
11 | 0
Фильмы 2018 [DVDrip, WEB-DLRip, HDrip] (DUB, MVO) [ 1.42 GB ] Лукас / Lukas [2018 BDRip] MVO Twi7ter Скачать
2 | 0
Фильмы 2018 [DVDrip, WEB-DLRip, HDrip] (DUB, MVO) [ 1.41 GB ] Джим Пуговка и машинист Лукас / Jim Knopf und Lukas der Lokomotivführer [2018 BDRip] - Twi7ter Скачать
1 | 0
Фильмы 2018 [DVDrip, WEB-DLRip, HDrip] (DUB, MVO) [ 2.14 GB ] Джим Пуговка и машинист Лукас / Jim Knopf und Lukas der Lokomotivführer [2018 BDRip] - Twi7ter Скачать
2 | 0
Фильмы (Blu-ray, BD-Remux, HDDVD) [ 16.94 GB ] Лукас / Lukas [2018 BDRemux 1080p] [MVO] killermax2013 Скачать
3 | 0
Фильмы (Blu-ray, BD-Remux, HDDVD) [ 25.9 GB ] Джим Пуговка и машинист Лукас / Jim Knopf und Lukas der Lokomotivführer [2018 BDRip 1080p] bober100 Скачать
1 | 0
Фильмы [HD 720p, 1080p] (Хороший звук DUB, MVO) [ 9.57 GB ] Джим Пуговка и машинист Лукас / Jim Knopf und Lukas der Lokomotivführer [2018 BDRip 1080p] bober100 Скачать
1 | 0

28-11-2019 20:33  

Отключить всю рекламу на сайте

26-12-2018 15:17 Лукас Скачать торрент  

Если тунец. То где субтитры на французский? Лялякуют и ничего не понятно. Французский не учил!pb.wtf



26-12-2018 16:24 Лукас Скачать торрент  

Demon83666 писал(а):

Если тунец. То где субтитры на французский? Лялякуют и ничего не понятно. Французский не учил!

Найди тунец с субтитрами , прикручу. (Умник блин)pb.wtf



26-12-2018 18:41 Лукас Скачать торрент  

Мичман37 писал(а):

Demon83666 писал(а):

Если тунец. То где субтитры на французский? Лялякуют и ничего не понятно. Французский не учил!

Найди тунец с субтитрами , прикручу. (Умник блин)

Так я и не с наездами к тебе? Просто обычно тунцы полномерные выходят. А тут чё-то странно! Наезды к тунцу!pb.wtf



27-12-2018 17:55 Лукас Скачать торрент  

Блин, Ваня вообще хавает хоть иногда?!
Дохлый, как наркот.pb.wtf



    Дорогой пользователь! Огромная просьба, поблагодарите релизера, оцените раздачу и оставьте свои комментарий, если Вы скачали Лукас через торрент бесплатно! Внесите свою лепту в развитие PiratBit!
    Комментировать посты могут только пользователи прошедшие не сложную регистрацию
    Показать сообщения:    

    Лукас через торрент
    Скачать бесплатно Лукас
    Лукас скачать торрент
    Лукас смотреть онлайн
    Cкачать фильм Лукас бесплатно
    Лукас скачать торрент в хорошем качестве
    Лукас смотреть онлайн бесплатно в хорошем качестве


    Вы не можете начинать темы
    Вы не можете отвечать на сообщения
    Вы не можете редактировать свои сообщения
    Вы не можете удалять свои сообщения
    Вы не можете голосовать в опросах
    Вы не можете прикреплять файлы к сообщениям
    Вы можете скачивать файлы