Ссылка на приватное зеркало всего за 1$. Внимание количество ограничено!!!

OK

1+1

iTunes

мы

OK

1

WEB-DLRip

Джокер

Пифагор

Ведьмак / The Witcher сериал

Лицензия

ПШазам

ОК

Оно 2

iTunes

30
pack

Вам бонус

ВАЖНО

!!Акция!!

Alien_RageХит недели

RePack

Resident Evil 21

ИГРА 18+

pack

RePack

jed

!!Акция!!

Alien_Rage

RePack

fifa19

RePack

Assassins Creed: Odyssey

RePack

NEED FOR SPEED™ PAYBACK

4 сезон

9 сезон

Бесстыжие 9 сезон

Все сериалы

все сериалы на PB.wtf

RePack

FAR CRY 5
  

Королевство драконов / Dragon Kingdom (Саймон Уэллс) [2018 г., Ужасы, Фэнтези, Боевик, WEB-DLRip, Любительский (многоголосый)(AlphaProject)] pb.wtf

Королевство драконов через торрент pb.wtf

Размер: 1.32 GB | Добавлен: 1 год назад | Торрент скачан:188 раз
Скачать  

24-12-2018 18:18 Королевство драконов Скачать торрент  

Королевство драконов / Dragon Kingdom
Год выпуска: 2018
Страна: Великобритания
Жанр: Ужасы, Фэнтези, Боевик
Продолжительность: 01:25:26
Перевод: Любительский (многоголосый)(AlphaProject)
Субтитры: Отсутствуют

Режиссер: Саймон Уэллс

Премьера в мире: 24 марта 2019

rating

В ролях: Росс О'Хеннесси, Бен Лойд-Холмс, Сильвио Шимач, Зара Питиан, Андреа Василиу, Адриан Буше, Кейт Мари Дэвис, Ли Куньцзюэ, Джон-Пол Гейтс, Ребекка Дайсон-Смит

Описание: Принц Фавиан пытается тайно узурпировать Влacть и призывает на службу армию живых мертвецов и драконов. Однако, его сестре Элизабет чудом удаётся выжить во время разрушения замка. Теперь она должна с помощью двух преданных рыцарей и двух которианских воительниц пробраться на другой конец страны, чтобы предупредить отца и спасти королевство. Но, для этого, им придётся пройти через Тёмное королевство под властью таинственного Магистра.

Доп. информация: Присутствуют вставки голосовой и текстовой рекламы

Качество: WEB-DLRip
Формат: AVI
Видео кодек: XviD
Аудио кодек: AC3
Видео: Xvid, 720x304, ~1824 Kbps
Аудио#1: AC3, 2 ch, 384 Kbps
скриншот   скриншот   скриншот   скриншот  

Общее
Полное имя : D:\CD\Королевство драконов (2019) WEB-DLRip-MVO\Королевство драконов (2019) WEB-DLRip-MVO.avi
Формат : AVI
Формат/Информация : Audio Video Interleave
Размер файла : 1,32 Гбайт
Продолжительность : 1 ч. 25 м.
Общий поток : 2217 Кбит/сек
Программа кодирования : VirtualDubMod 1.5.10.2 (build 2540/release)
Библиотека кодирования : VirtualDub build 35576/release

Видео
Идентификатор : 0
Формат : MPEG-4 Visual
Профиль формата : Advanced Simple@L5
Настройки формата : BVOP2 / Custom Matrix
Параметр BVOP формата : 2
Параметр QPel формата : Нет
Параметр GMC формата : Без точки перехода
Параметр матрицы формата : Выборочная
Идентификатор кодека : XVID
Идентификатор кодека/Подсказка : XviD
Продолжительность : 1 ч. 25 м.
Битрейт : 1824 Кбит/сек
Ширина : 720 пикселей
Высота : 304 пикселя
Соотношение сторон : 2,35:1
Частота кадров : 23,976 (24000/1001) кадра/сек
Цветовое пространство : YUV
Субдискретизация насыщенности : 4:2:0
Битовая глубина : 8 бит
Тип развёртки : Прогрессивная
Метод сжатия : С потерями
Бит/(Пиксели*Кадры) : 0.348
Размер потока : 1,09 Гбайт (82%)
Библиотека кодирования : XviD 1.2.1 (UTC 2008-12-04)

Аудио
Идентификатор : 1
Формат : AC-3
Формат/Информация : Audio Coding 3
Коммерческое название : Dolby Digital
Идентификатор кодека : 2000
Продолжительность : 1 ч. 25 м.
Вид битрейта : Постоянный
Битрейт : 384 Кбит/сек
Каналы : 2 канала
Channel layout : L R
Частота : 48,0 КГц
Частота кадров : 31,250 кадров/сек (1536 SPF)
Битовая глубина : 16 бит
Метод сжатия : С потерями
Размер потока : 235 Мбайт (17%)
Выравнивание : Разделение по промежуткам
Продолжительность промежутка : 42 мс. (1,00 видеокадр)
Время предзагрузки промежутка : 500 мс.
ServiceKind/String : Complete Main

pb.wtf



Скачать Королевство драконов через торрент http://pic1.kartinco.top/images/12/owkvy.jpg Скачать фильм Королевство драконов через торрент бесплантно в хорошем качестве Описание: Принц Фавиан пытается тайно узурпировать Влacть и призывает на службу армию живых мертвецов и драконов. Однако, его сестре ... 8.2 10 5
Торрент: Зарегистрирован [2018-12-24 18:18] · скачан: 188 раз
Статус: T временная
Размер: 1.32 GB
Как cкачать? Как скачать Королевство драконов через торрент | qTorrent

% Раздел Тема Автор DL S | L
Азиатские фильмы [ 2.18 GB ] Три королевства: Возвращение дракона / Three Kingdoms: Resurrection of the Dragon [2008 военный история BDRip] MVO + Original + Subs Assasinca Скачать
1 | 0

28-11-2019 20:33  

Отключить всю рекламу на сайте

25-12-2018 06:49 Королевство драконов Скачать торрент  

Бюджет фильма равняется сумме карманных расходов детей режиссераpb.wtf



25-12-2018 08:51 Королевство драконов Скачать торрент  

Suicide297 писал(а):

Бюджет фильма равняется сумме карманных расходов детей режиссера

pb.wtf



28-12-2018 09:29 Королевство драконов Скачать торрент  

Рейтинг зашкаливаетpb.wtf



    Дорогой пользователь! Огромная просьба, поблагодарите релизера, оцените раздачу и оставьте свои комментарий, если Вы скачали Королевство драконов через торрент бесплатно! Внесите свою лепту в развитие PiratBit!
    Комментировать посты могут только пользователи прошедшие не сложную регистрацию
    Показать сообщения:    

    Королевство драконов через торрент
    Скачать бесплатно Королевство драконов
    Королевство драконов скачать торрент
    Королевство драконов смотреть онлайн
    Cкачать фильм Королевство драконов бесплатно
    Королевство драконов скачать торрент в хорошем качестве
    Королевство драконов смотреть онлайн бесплатно в хорошем качестве


    Вы не можете начинать темы
    Вы не можете отвечать на сообщения
    Вы не можете редактировать свои сообщения
    Вы не можете удалять свои сообщения
    Вы не можете голосовать в опросах
    Вы не можете прикреплять файлы к сообщениям
    Вы можете скачивать файлы