Ссылка на приватное зеркало всего за 1$. Внимание количество ограничено!!!

OK

1+1

iTunes

мы

OK

1

WEB-DLRip

Джокер

Пифагор

Ведьмак / The Witcher сериал

iTunes

ПШазам

ОК

Оно 2

iTunes

30
pack

Вам бонус

ВАЖНО

!!Акция!!

Alien_RageХит недели

RePack

Resident Evil 21

ИГРА 18+

pack

RePack

jed

RePack

fifa19

RePack

Assassins Creed: Odyssey

RePack

NEED FOR SPEED™ PAYBACK

4 сезон

9 сезон

Бесстыжие 9 сезон

Все сериалы

все сериалы на PB.wtf

RePack

FAR CRY 5
  

Хранители душ / Body Keepers (Шелли Коул) [2018 г., Триллер, WEB-DLRip, Любительский (многоголосый)"Синема УС"] pb.wtf

Хранители душ через торрент pb.wtf

Размер: 1.36 GB | Добавлен: 1 год 1 мес. назад | Торрент скачан:53 раза
Скачать  

24-12-2018 18:36 Хранители душ Скачать торрент  

Хранители душ / Body Keepers
Год выпуска: 2018
Страна: США
Жанр: Триллер
Продолжительность: 01:25:03
Перевод: Любительский (многоголосый)"Синема УС"
Субтитры: Отсутствуют

Режиссер: Шелли Коул

Премьера в мире: 20 декабря 2018

rating

В ролях: Тревор Лайонс, Остин Олвейн, Шантель Дарлена, Мег Смит, Дженнифер Сиполла, Тони Седилло, Тейлор Пойфэйр, Николас Ли, Мэри Кей Ирвинг, Одри Джонс

Описание: В Недерленде, штат Колорадо, продолжают пропадать дети. Однажды, группа подростков решает взломать сарай, чтобы украсть детали для своего проекта. Там они обнаруживают замороженное тело. Пробудив адскую сущность они узнают, что на самом деле значит "холод, как в аду"

Доп. информация: Присутствуют вставки видео, голосовой и текстовой рекламы

Качество: WEB-DLRip
Формат: AVI
Видео кодек: XviD
Аудио кодек: AC3
Видео: Xvid, 720x304 (2,35:1), ~1900 Kbps
Аудио#1: AC3, 2 ch, 384 Kbps
скриншот   скриншот   скриншот   скриншот  

Общее
Полное имя : G:\Body.Keepers.2018.WEB-DLRip.avi
Формат : AVI
Формат/Информация : Audio Video Interleave
Размер файла : 1,36 Гбайт
Продолжительность : 1 ч. 25 м.
Общий поток : 2294 Кбит/сек
Программа кодирования : VirtualDubMod 1.5.10.2 (build 2540/release)
Библиотека кодирования : VirtualDubMod build 2540/release

Видео
Идентификатор : 0
Формат : MPEG-4 Visual
Профиль формата : Advanced Simple@L5
Настройки формата : BVOP2 / Custom Matrix
Параметр BVOP формата : 2
Параметр QPel формата : Нет
Параметр GMC формата : Без точки перехода
Параметр матрицы формата : Выборочная
Идентификатор кодека : XVID
Идентификатор кодека/Подсказка : XviD
Продолжительность : 1 ч. 25 м.
Битрейт : 1901 Кбит/сек
Ширина : 720 пикселей
Высота : 304 пикселя
Соотношение сторон : 2,35:1
Частота кадров : 23,976 (24000/1001) кадра/сек
Цветовое пространство : YUV
Субдискретизация насыщенности : 4:2:0
Битовая глубина : 8 бит
Тип развёртки : Прогрессивная
Метод сжатия : С потерями
Бит/(Пиксели*Кадры) : 0.362
Размер потока : 1,13 Гбайт (83%)
Библиотека кодирования : XviD 1.2.1 (UTC 2008-12-04)

Аудио
Идентификатор : 1
Формат : AC-3
Формат/Информация : Audio Coding 3
Коммерческое название : Dolby Digital
Идентификатор кодека : 2000
Продолжительность : 1 ч. 25 м.
Вид битрейта : Постоянный
Битрейт : 384 Кбит/сек
Каналы : 2 канала
Channel layout : L R
Частота : 48,0 КГц
Частота кадров : 31,250 кадров/сек (1536 SPF)
Битовая глубина : 16 бит
Метод сжатия : С потерями
Размер потока : 234 Мбайт (17%)
Выравнивание : Разделение по промежуткам
Продолжительность промежутка : 42 мс. (1,00 видеокадр)
Время предзагрузки промежутка : 500 мс.
ServiceKind/String : Complete Main

pb.wtf



Скачать Хранители душ через торрент http://pic1.kartinco.top/images/12/w2x61.jpg Скачать фильм Хранители душ через торрент бесплантно в хорошем качестве Описание: В Недерленде, штат Колорадо, продолжают пропадать дети. Однажды, группа подростков решает взломать сарай, чтобы украсть детали ... 7.8 10 4
Торрент: Зарегистрирован [2018-12-24 18:36] · скачан: 53 раз
Статус: T временная
Размер: 1.36 GB
Как cкачать? Как скачать Хранители душ через торрент | qTorrent

28-11-2019 20:33  

Отключить всю рекламу на сайте


    Дорогой пользователь! Огромная просьба, поблагодарите релизера, оцените раздачу и оставьте свои комментарий, если Вы скачали Хранители душ через торрент бесплатно! Внесите свою лепту в развитие PiratBit!
    Комментировать посты могут только пользователи прошедшие не сложную регистрацию
    Показать сообщения:    

    Хранители душ через торрент
    Скачать бесплатно Хранители душ
    Хранители душ скачать торрент
    Хранители душ смотреть онлайн
    Cкачать фильм Хранители душ бесплатно
    Хранители душ скачать торрент в хорошем качестве
    Хранители душ смотреть онлайн бесплатно в хорошем качестве


    Вы не можете начинать темы
    Вы не можете отвечать на сообщения
    Вы не можете редактировать свои сообщения
    Вы не можете удалять свои сообщения
    Вы не можете голосовать в опросах
    Вы не можете прикреплять файлы к сообщениям
    Вы можете скачивать файлы