Ссылка на приватное зеркало всего за 1$. Внимание количество ограничено!!!

OK

1+1

iTunes

мы

OK

1

WEB-DLRip

Джокер

Пифагор

Ведьмак / The Witcher сериал

Лицензия

ПШазам

ОК

Оно 2

iTunes

30
pack

Вам бонус

ВАЖНО

!!Акция!!

Alien_RageХит недели

RePack

Resident Evil 21

ИГРА 18+

pack

RePack

jed

RePack

fifa19

RePack

Assassins Creed: Odyssey

RePack

NEED FOR SPEED™ PAYBACK

4 сезон

9 сезон

Бесстыжие 9 сезон

Все сериалы

все сериалы на PB.wtf

RePack

FAR CRY 5
  

Мистер 365 / Mr. 365 (Кристи Уилл) [2018 г., Мелодрама, WEB-DLRip, Любительский (многоголосый)"Синема УС"] pb.wtf

Мистер 365 через торрент pb.wtf

Размер: 1.37 GB | Добавлен: 1 год назад | Торрент скачан:24 раза
Скачать  

24-12-2018 18:48 Мистер 365 Скачать торрент  

Мистер 365 / Mr. 365
Год выпуска: 2018
Страна: США
Жанр: Мелодрама
Продолжительность: 01:31:30
Перевод: Любительский (многоголосый)"Синема УС"
Субтитры: Отсутствуют

Режиссер: Кристи Уилл

Премьера в мире: 15 декабря 2018

rating

В ролях: Челси Хоббс, Кристофер Расселл, Джилл Моррисон, Мэтт Андерсон, Джеффри Уоллес, Донна Бенедикто, Гиджет, Люсия Уолтерс

Описание: София, продюсер реалити-шоу, начинает работать над праздничным шоу о Уилле, сексуальном парне, который празднует Рождество каждый день в году. Она влюбляется в свою таинственную, маловероятную новую звезду, тем самым возрождая свою давно потерянную любовь к Рождеству.

Доп. информация: Присутствуют вставки видео, голосовой и текстовой рекламы

Качество: WEB-DLRip
Формат: AVI
Видео кодек: XviD
Аудио кодек: AC3
Видео: Xvid, 720x400 (16:9), ~1745 Kbps
Аудио#1: AC3, 2 ch, 384 Kbps
скриншот   скриншот   скриншот   скриншот  

Общее
Полное имя : G:\Mr.365.2018.P.WEB-DLRip.avi
Формат : AVI
Формат/Информация : Audio Video Interleave
Размер файла : 1,37 Гбайт
Продолжительность : 1 ч. 31 м.
Общий поток : 2138 Кбит/сек
Программа кодирования : VirtualDubMod 1.5.10.2 (build 2540/release)
Библиотека кодирования : VirtualDubMod build 2540/release

Видео
Идентификатор : 0
Формат : MPEG-4 Visual
Профиль формата : Advanced Simple@L5
Настройки формата : BVOP2 / Custom Matrix
Параметр BVOP формата : 2
Параметр QPel формата : Нет
Параметр GMC формата : Без точки перехода
Параметр матрицы формата : Выборочная
Идентификатор кодека : XVID
Идентификатор кодека/Подсказка : XviD
Продолжительность : 1 ч. 31 м.
Битрейт : 1745 Кбит/сек
Ширина : 720 пикселей
Высота : 400 пикселей
Соотношение сторон : 16:9
Частота кадров : 23,976 (24000/1001) кадра/сек
Цветовое пространство : YUV
Субдискретизация насыщенности : 4:2:0
Битовая глубина : 8 бит
Тип развёртки : Прогрессивная
Метод сжатия : С потерями
Бит/(Пиксели*Кадры) : 0.253
Размер потока : 1,12 Гбайт (82%)
Библиотека кодирования : XviD 1.2.1 (UTC 2008-12-04)

Аудио
Идентификатор : 1
Формат : AC-3
Формат/Информация : Audio Coding 3
Коммерческое название : Dolby Digital
Идентификатор кодека : 2000
Продолжительность : 1 ч. 31 м.
Вид битрейта : Постоянный
Битрейт : 384 Кбит/сек
Каналы : 2 канала
Channel layout : L R
Частота : 48,0 КГц
Частота кадров : 31,250 кадров/сек (1536 SPF)
Битовая глубина : 16 бит
Метод сжатия : С потерями
Размер потока : 251 Мбайт (18%)
Выравнивание : Разделение по промежуткам
Продолжительность промежутка : 42 мс. (1,00 видеокадр)
Время предзагрузки промежутка : 500 мс.
ServiceKind/String : Complete Main

pb.wtf



Скачать Мистер 365 через торрент http://pic1.kartinco.top/images/12/l3g2q.jpg Скачать фильм Мистер 365 через торрент бесплантно в хорошем качестве Описание: София, продюсер реалити-шоу, начинает работать над праздничным шоу о Уилле, сексуальном парне, который празднует Рождество каждый ... 5 10 1
Торрент: Зарегистрирован [2018-12-24 18:48] · скачан: 24 раз
Статус: T временная
Размер: 1.37 GB
Как cкачать? Как скачать Мистер 365 через торрент | qTorrent

28-11-2019 20:33  

Отключить всю рекламу на сайте


    Дорогой пользователь! Огромная просьба, поблагодарите релизера, оцените раздачу и оставьте свои комментарий, если Вы скачали Мистер 365 через торрент бесплатно! Внесите свою лепту в развитие PiratBit!
    Комментировать посты могут только пользователи прошедшие не сложную регистрацию
    Показать сообщения:    

    Мистер 365 через торрент
    Скачать бесплатно Мистер 365
    Мистер 365 скачать торрент
    Мистер 365 смотреть онлайн
    Cкачать фильм Мистер 365 бесплатно
    Мистер 365 скачать торрент в хорошем качестве
    Мистер 365 смотреть онлайн бесплатно в хорошем качестве


    Вы не можете начинать темы
    Вы не можете отвечать на сообщения
    Вы не можете редактировать свои сообщения
    Вы не можете удалять свои сообщения
    Вы не можете голосовать в опросах
    Вы не можете прикреплять файлы к сообщениям
    Вы можете скачивать файлы