новый адрес
Ссылка на приватное зеркало всего за 1$. Внимание количество ограничено!!!

iTunes

1+1

iTunes

мы

WEB-DL

1

iTunes

Чернобыль

iTunes

Ральф против интернета

Лицензия

ПШазам

Лицензия

Оно 2

Лицензия

30
pack

Вам бонус

ВАЖНО

!!Акция!!

Alien_RageХит недели

RePack

Resident Evil 21

ИГРА 18+

pack

RePack

jed

!!Акция!!

Alien_Rage

RePack

fifa19

RePack

Assassins Creed: Odyssey

RePack

NEED FOR SPEED™ PAYBACK

3 сезон

9 сезон

Бесстыжие 9 сезон

Все сериалы

все сериалы на PB.wtf

RePack

FAR CRY 5
Ребята, катастрофически не хватает 1900р. для оплаты серверов за Октябрь (всвязи с блокировками трафик упал в 3 раза), 1-2р., выручайте.
  

Рождественские хроники / The Christmas Chronicles (Клэй Кэйтис / Clay Kaytis) [2018, фэнтези, комедия, приключения, WEB-DLRip-AVC] Dub - ExKinoRay pb.wtf

Рождественские хроники через торрент pb.wtf

Раздают: 1 [ 0 KB/s ]
Размер: 2.1 GB | Добавлен: 11 мес. назад | Торрент скачан:463 раза
Скачать  

25-12-2018 00:25 Рождественские хроники Скачать торрент  

Информация о фильме
Название: Рождественские хроники
Оригинальное название: The Christmas Chronicles
Год выпуска: 2018
Жанр: Фэнтези, комедия, приключения, семейный
Режиссер: Клэй Кэйтис
В ролях: Курт Расселл, Кимберли Уильямс, Оливер Хадсон, Джуда Льюис, Дэрби Кэмп

Описание:
В канун Рождества брат с сестрой — Кейт и Тедди Пирс — собираются заснять на видео появление Санты. Дерзкий замысел выливается в необыкновенное приключение, о котором дети не могли даже мечтать. Вместе с преданными эльфами и волшебными летающими оленями они помогают Санте спасти всеми любимый праздник.

rating


Страна: США
Студия: 1492 Pictures, Madhouse Entertainment, Netflix
Продолжительность: 01:44:26
Перевод: Дублированный | Пифагор
Субтитры: Русские, английские

Формат: MKV
Качество: WEB-DLRip-AVC
Видео: MPEG-4 AVC, 1024x552 (1.85:1), 24.000 fps, 2120 Kbps, 0.156 bit/pixel
Аудио 1: 48 kHz, AC3, 5.1, 384 Kbps | RUS |
Аудио 2: 48 kHz, AC3, 5.1, 384 Kbps | ENG |
Unique ID : 234046898554927513888240160388487819744 (0xB013CB0421A144C7B70A15B2256FB1E0)
Complete name : D:\The.Christmas.Chronicles.2018.WEB-DLRip.AVC.ExKinoRay.mkv
Format : Matroska
Format version : Version 2
File size : 2.10 GiB
Duration : 1 h 44 min
Overall bit rate : 2 883 kb/s
Movie name : The Christmas Chronicles 2018 from ExKinoRay
Encoded date : UTC 2018-12-24 22:00:09
Writing application : mkvmerge v5.6.0 ('Kenya Kane') built on May 27 2012 16:44:04
Writing library : libebml v1.2.3 + libmatroska v1.3.0

Video
ID : 1
Format : AVC
Format/Info : Advanced Video Codec
Format profile : High@L4.1
Format settings, CABAC : Yes
Format settings, ReFrames : 11 frames
Codec ID : V_MPEG4/ISO/AVC
Duration : 1 h 44 min
Bit rate : 2 120 kb/s
Width : 1 024 pixels
Height : 552 pixels
Display aspect ratio : 1.85:1
Frame rate mode : Constant
Frame rate : 24.000 FPS
Color space : YUV
Chroma subsampling : 4:2:0
Bit depth : 8 bits
Scan type : Progressive
Bits/(Pixel*Frame) : 0.156
Stream size : 1.50 GiB (71%)
Title : Enigma
Writing library : x264 core 152 r2851 ba24899
Encoding settings : cabac=1 / ref=11 / deblock=1:-2:-2 / analyse=0x3:0x113 / me=umh / subme=10 / psy=1 / psy_rd=1.02:0.05 / mixed_ref=1 / me_range=32 / chroma_me=1 / trellis=2 / 8x8dct=1 / cqm=0 / deadzone=21,11 / fast_pskip=0 / chroma_qp_offset=-3 / threads=12 / lookahead_threads=3 / sliced_threads=0 / nr=0 / decimate=0 / interlaced=0 / bluray_compat=0 / constrained_intra=0 / bframes=10 / b_pyramid=2 / b_adapt=2 / b_bias=0 / direct=3 / weightb=1 / open_gop=0 / weightp=2 / keyint=240 / keyint_min=24 / scenecut=40 / intra_refresh=0 / rc=2pass / mbtree=0 / bitrate=2120 / ratetol=1.0 / qcomp=0.60 / qpmin=0 / qpmax=51 / qpstep=4 / cplxblur=20.0 / qblur=0.5 / ip_ratio=1.40 / pb_ratio=1.30 / aq=2:0.90
Language : English
Default : Yes
Forced : No
Color range : Limited
Color primaries : BT.709
Transfer characteristics : BT.709
Matrix coefficients : BT.709

Audio #1
ID : 2
Format : AC-3
Format/Info : Audio Coding 3
Mode extension : CM (complete main)
Format settings, Endianness : Big
Codec ID : A_AC3
Duration : 1 h 44 min
Bit rate mode : Constant
Bit rate : 384 kb/s
Channel(s) : 6 channels
Channel positions : Front: L C R, Side: L R, LFE
Sampling rate : 48.0 kHz
Frame rate : 31.250 FPS (1536 spf)
Compression mode : Lossy
Stream size : 287 MiB (13%)
Title : Dub (Pifagor)
Language : Russian
Default : Yes
Forced : No

Audio #2
ID : 3
Format : AC-3
Format/Info : Audio Coding 3
Mode extension : CM (complete main)
Format settings, Endianness : Big
Codec ID : A_AC3
Duration : 1 h 44 min
Bit rate mode : Constant
Bit rate : 384 kb/s
Channel(s) : 6 channels
Channel positions : Front: L C R, Side: L R, LFE
Sampling rate : 48.0 kHz
Frame rate : 31.250 FPS (1536 spf)
Compression mode : Lossy
Stream size : 287 MiB (13%)
Language : English
Default : No
Forced : No

Text #1
ID : 4
Format : UTF-8
Codec ID : S_TEXT/UTF8
Codec ID/Info : UTF-8 Plain Text
Title : Forced
Language : Russian
Default : Yes
Forced : No

Text #2
ID : 5
Format : UTF-8
Codec ID : S_TEXT/UTF8
Codec ID/Info : UTF-8 Plain Text
Language : Russian
Default : No
Forced : No

Text #3
ID : 6
Format : UTF-8
Codec ID : S_TEXT/UTF8
Codec ID/Info : UTF-8 Plain Text
Language : English
Default : No
Forced : No
Релиз от:

Автор релиза: pb.wtf



Скачать Рождественские хроники через торрент https://d.radikal.ru/d03/1811/42/29955b819368.png Скачать фильм Рождественские хроники через торрент бесплантно в хорошем качестве Описание: В канун Рождества брат с сестрой — Кейт и Тедди Пирс — собираются заснять на видео появление Санты. Дерзкий замысел выливается в ... 10 10 8
Info! Золотая раздача, скачанное не засчитывается.
Торрент: Зарегистрирован [2018-12-25 00:25] · скачан: 463 раз
Статус: √ проверено
Размер: 2.1 GB
Как cкачать? Как скачать Рождественские хроники через торрент | qTorrent

28-11-2019 20:33  

Отключить всю рекламу на сайте

    Дорогой пользователь! Огромная просьба, поблагодарите релизера, оцените раздачу и оставьте свои комментарий, если Вы скачали Рождественские хроники через торрент бесплатно! Внесите свою лепту в развитие PiratBit!
    Комментировать посты могут только пользователи прошедшие не сложную регистрацию
    Показать сообщения:    

    Рождественские хроники через торрент
    Скачать бесплатно Рождественские хроники
    Рождественские хроники скачать торрент
    Рождественские хроники смотреть онлайн
    Cкачать фильм Рождественские хроники бесплатно
    Рождественские хроники скачать торрент в хорошем качестве
    Рождественские хроники смотреть онлайн бесплатно в хорошем качестве


    Вы не можете начинать темы
    Вы не можете отвечать на сообщения
    Вы не можете редактировать свои сообщения
    Вы не можете удалять свои сообщения
    Вы не можете голосовать в опросах
    Вы не можете прикреплять файлы к сообщениям
    Вы можете скачивать файлы