Ссылка на приватное зеркало нашего сайта всего за 1$. Внимание количество ограничено!!!

2 сезон

iTunes

1 сезон

1

iTunes

iTunes

iTunes

1 сезон

RePack

30

ИГРА 18+

pack

ВАЖНО

!!Акция!!

Alien_RageХит недели

RePack

MK11
pack

Забери бонус

RePack

jed

!!Акция!!

Alien_Rage

RePack

fifa19

RePack

Assassins Creed: Odyssey

RePack

NEED FOR SPEED™ PAYBACK

4 сезон

9 сезон

Бесстыжие 9 сезон

Все сериалы

все сериалы на PB.wtf

RePack

FAR CRY 5
  

Вышибала / Сезон: 1 / Серии: 1-16 из 16 (Сергей Крутин) [2016, Криминал, драма, SATRip] pb.wtf

Вышибала через торрент pb.wtf

Размер: 9.75 GB | Добавлен: 1 год 10 мес. назад | Торрент скачан:92 раза
Скачать  

25-12-2018 04:33 Вышибала Скачать торрент  

ВышибалаГод выпуска: 2016
Страна: Россия
Жанр: Криминал, драма
Продолжительность: ~00:45:00
Перевод: не требуется
Субтитры: отсутствуют

Режиссер: Сергей Крутин



В ролях:

Дмитрий Марьянов, Анастасия Панина, Гела Месхи, Мария Машкова, Александр Наумов, Владимир Фекленко, Надежда Маркина, Константин Юшкевич, Ян Цапник, Семён Трескунов, Анна Казючиц, Олег Васильков, Леонид Тимцуник, Фёдор Лавров, Лилия Лаврова, Аксиния Пустыльникова, Екатерина Давыдова-Тонгур, Роман Синицын

Описание:

После отсидки на волю выходит Александр Чижов, по прозвищу Чижик. Пятнадцать лет назад он состоял в Тополевской ОПГ и взял вину за убийство на себя, хотя на самом деле был ни в чем не виноват. Настоящий душегуб, глава тополевской браты Николай Регунов по кличке Гуня, в благодарность за это дал деньги на лечение отца Чижика от онкологии. Бывшая любовь Чижика Наталья Климцова не стала дожидаться сидельца и стала женой Гуни. Ныне Гуня бизнесмен со связями. Он организует хороший прием в честь возвращения Чижика, там же была и Наташа. При взгляде друг на друга между ними опять начинает зарождаться высокое чувство.

Качество: SATRip
Формат: AVI

Видео: XviD, ~ 1800 Кбит/с, 720х448
Аудио: MP3, 2 ch, 128 Кбит/с
скриншот  скриншот   скриншот   скриншот   скриншот  

Общее
Полное имя : E:\торреннты\Vyshibala\Vyshibala.01.SATRip.avi
Формат : AVI
Формат/Информация : Audio Video Interleave
Размер файла : 638 Мбайт
Продолжительность : 45 м. 54 с.
Общий поток : 1942 Кбит/сек

Видео
Идентификатор : 0
Формат : MPEG-4 Visual
Профиль формата : Advanced Simple@L5
Настройки формата : BVOP2
Параметр BVOP формата : 2
Параметр QPel формата : Нет
Параметр GMC формата : Без точки перехода
Параметр матрицы формата : Default (H.263)
Идентификатор кодека : XVID
Идентификатор кодека/Подсказка : XviD
Продолжительность : 45 м. 54 с.
Битрейт : 1800 Кбит/сек
Ширина : 720 пикселей
Высота : 448 пикселей
Соотношение сторон : 16:10
Частота кадров : 25,000 кадров/сек
Цветовое пространство : YUV
Субдискретизация насыщенности : 4:2:0
Битовая глубина : 8 бит
Тип развёртки : Прогрессивная
Метод сжатия : С потерями
Бит/(Пиксели*Кадры) : 0.223
Размер потока : 591 Мбайт (93%)
Библиотека кодирования : XviD 1.2.1 (UTC 2008-12-04)

Аудио
Идентификатор : 1
Формат : MPEG Audio
Версия формата : Version 1
Профиль формата : Layer 3
Настройки формата : Joint stereo / MS Stereo
Идентификатор кодека : 55
Идентификатор кодека/Подсказка : MP3
Продолжительность : 45 м. 54 с.
Вид битрейта : Постоянный
Битрейт : 128 Кбит/сек
Каналы : 2 канала
Частота : 48,0 КГц
Частота кадров : 41,667 кадра/сек (1152 SPF)
Метод сжатия : С потерями
Размер потока : 42,0 Мбайт (7%)
Выравнивание : Соединение по промежуткам
Продолжительность промежутка : 24 мс. (0,60 видеокадр)
Библиотека кодирования : LAME3.99r
Настройки программы : -m j -V 4 -q 9 -lowpass 17 -b 128

pb.wtf



Скачать Вышибала через торрент http://i77.fastpic.ru/big/2016/0615/da/3a2287674dba3109171f9622cdd470da.jpg Скачать фильм Вышибала через торрент бесплантно в хорошем качестве Описание: После отсидки на волю выходит Александр Чижов, по прозвищу Чижик. Пятнадцать лет назад он состоял в Тополевской ОПГ и взял вину ... 9.8 10 6
Info! Золотая раздача, скачанное не засчитывается.
Торрент: Зарегистрирован [2018-12-25 04:33] · скачан: 92 раз
Статус: √ проверено
Размер: 9.75 GB
Как cкачать? Как скачать Вышибала через торрент | qTorrent

% Раздел Тема Автор DL S | L
Наши сериалы [ 11.05 GB ] Вышибала / Сезон: 1 / Серии: 1-16 из 16 [2016 HDTVRip-AVC] bober100 Скачать
1 | 0
Наши сериалы [ 24.89 GB ] Вышибала / Сезон: 1 / Серии: 1-16 из 16 [2016 HDTVRip 720p] bober100 Скачать
1 | 0
Наши сериалы [ 42.64 GB ] Вышибала / Сезон: 1 / Серии: 1-16 из 16 [2016 HDTV 1080i] bober100 Скачать
1 | 0
Наши сериалы [ 8.6 GB ] Вышибала / Сезон: 1 / Серия 1-16 [2016 HDTVRip] nn99nn Скачать
1 | 0

28-11-2019 20:33  

Отключить всю рекламу на сайте

    Дорогой пользователь! Огромная просьба, поблагодарите релизера, оцените раздачу и оставьте свои комментарий, если Вы скачали Вышибала через торрент бесплатно! Внесите свою лепту в развитие PiratBit!
    Комментировать посты могут только пользователи прошедшие не сложную регистрацию
    Показать сообщения:    

    Вышибала через торрент
    Скачать бесплатно Вышибала
    Вышибала скачать торрент
    Вышибала смотреть онлайн
    Cкачать фильм Вышибала бесплатно
    Вышибала скачать торрент в хорошем качестве
    Вышибала смотреть онлайн бесплатно в хорошем качестве


    Вы не можете начинать темы
    Вы не можете отвечать на сообщения
    Вы не можете редактировать свои сообщения
    Вы не можете удалять свои сообщения
    Вы не можете голосовать в опросах
    Вы не можете прикреплять файлы к сообщениям
    Вы можете скачивать файлы