Ссылка на приватное зеркало нашего сайта всего за 1$. Внимание количество ограничено!!!

2 сезон

iTunes

1 сезон

1

2 сезон

2 сезон

iTunes

1 сезон

RePack

30

Ultimate

ВАЖНО

ИГРА 18+

pack

RePack

MK11
pack

Забери бонус

RePack

jed

!!Акция!!

Alien_Rage

RePack

fifa19

RePack

Assassins Creed: Odyssey

RePack

NEED FOR SPEED™ PAYBACK

4 сезон

9 сезон

Бесстыжие 9 сезон

Все сериалы

все сериалы на PB.wtf

RePack

FAR CRY 5
  

Ночная смена / Nightshift (Дэниэл Этрилл) [2018 г., Ужасы, HDRip-AVC, Любительский (двухголосый) HiWayGrope] pb.wtf

Ночная смена через торрент pb.wtf

Размер: 1.43 GB | Добавлен: 1 год 11 мес. назад | Торрент скачан:129 раз
Скачать  

25-12-2018 05:36 Ночная смена Скачать торрент  

Ночная смена / Nightshift
Год выпуска: 2018
Страна: США
Жанр: Ужасы
Продолжительность: 01:20:14
Перевод: Любительский (двухголосый) HiWayGrope
Субтитры: Отсутствуют

Режиссер: Дэниэл Этрилл

rating

В ролях: Даниэль Аттрилл, Луис Тейлор, Джон Гуэррьеро, Билли Файф, Саманта Ланн

Описание: Эми устраивается на работу в ночную смену в отеле, где десять лет назад были жестоко убиты все постояльцы. В первую же ночь девушка сталкивается со таинственными событиями и понимает, что давние кровавые убийства не прошли для отеля бесследно.

Доп. информация: Рекламы нет.

Качество: HDRip-AVC
Формат: MKV
Видео кодек: H.264
Аудио кодек: AC3
Видео: AVC/H.264, 720x320, ~1800 Kbps
Аудио#1: AC3, 6 ch, 384 Kbps | русский
Аудио#2: AC3, 6 ch, 384 Kbps | английский
скриншот   скриншот   скриншот   скриншот  

бщее
Уникальный идентификатор : 289230828865588498643584544026607869651 (0xD997D4D7A0B169AFACA385272CF5DED3)
Полное имя : D:\FILMЬl\Nightshift.2018.mkv
Формат : Matroska
Версия формата : Version 4
Размер файла : 1,43 Гбайт
Продолжительность : 1 ч. 20 м.
Общий поток : 2560 Кбит/сек
Дата кодирования : UTC 2018-12-25 03:13:48
Программа кодирования : mkvmerge v28.2.0 ('The Awakening') 64-bit
Библиотека кодирования : libebml v1.3.6 + libmatroska v1.4.9

Видео
Идентификатор : 1
Формат : AVC
Формат/Информация : Advanced Video Codec
Профиль формата : High@L4.1
Настройки формата : CABAC / 4 Ref Frames
Параметр CABAC формата : Да
Параметр RefFrames формата : 4 кадра
Идентификатор кодека : V_MPEG4/ISO/AVC
Продолжительность : 1 ч. 20 м.
Битрейт : 1800 Кбит/сек
Ширина : 720 пикселей
Высота : 320 пикселей
Соотношение сторон : 2,25:1
Режим частоты кадров : Постоянный
Частота кадров : 23,976 (24000/1001) кадра/сек
Цветовое пространство : YUV
Субдискретизация насыщенности : 4:2:0
Битовая глубина : 8 бит
Тип развёртки : Прогрессивная
Бит/(Пиксели*Кадры) : 0.326
Размер потока : 1,00 Гбайт (70%)
Библиотека кодирования : x264 core 130 r2273 b3065e6
Настройки программы : cabac=1 / ref=1 / deblock=1:0:0 / analyse=0x3:0x113 / me=hex / subme=2 / psy=1 / psy_rd=1.00:0.00 / mixed_ref=0 / me_range=16 / chroma_me=1 / trellis=0 / 8x8dct=1 / cqm=0 / deadzone=21,11 / fast_pskip=1 / chroma_qp_offset=0 / threads=6 / lookahead_threads=2 / sliced_threads=0 / nr=0 / decimate=1 / interlaced=0 / bluray_compat=0 / constrained_intra=0 / bframes=3 / b_pyramid=2 / b_adapt=1 / b_bias=0 / direct=1 / weightb=1 / open_gop=0 / weightp=1 / keyint=240 / keyint_min=24 / scenecut=40 / intra_refresh=0 / rc_lookahead=10 / rc=abr / mbtree=1 / bitrate=1800 / ratetol=1.0 / qcomp=0.60 / qpmin=0 / qpmax=69 / qpstep=4 / vbv_maxrate=62500 / vbv_bufsize=78125 / nal_hrd=none / ip_ratio=1.40 / aq=1:1.00
Язык : English
Default : Да
Forced : Нет
Цветовой диапазон : Limited
Основные цвета : BT.709
Характеристики трансфера : BT.709
Коэффициенты матрицы : BT.709

Аудио #1
Идентификатор : 2
Формат : AC-3
Формат/Информация : Audio Coding 3
Коммерческое название : Dolby Digital
Идентификатор кодека : A_AC3
Продолжительность : 1 ч. 20 м.
Вид битрейта : Постоянный
Битрейт : 384 Кбит/сек
Каналы : 6 каналов
Channel layout : L R C LFE Ls Rs
Частота : 48,0 КГц
Частота кадров : 31,250 кадров/сек (1536 SPF)
Битовая глубина : 16 бит
Метод сжатия : С потерями
Размер потока : 220 Мбайт (15%)
Язык : Russian
ServiceKind/String : Complete Main
Default : Да
Forced : Нет

Аудио #2
Идентификатор : 3
Формат : AC-3
Формат/Информация : Audio Coding 3
Коммерческое название : Dolby Digital
Идентификатор кодека : A_AC3
Продолжительность : 1 ч. 20 м.
Вид битрейта : Постоянный
Битрейт : 384 Кбит/сек
Каналы : 6 каналов
Channel layout : L R C LFE Ls Rs
Частота : 48,0 КГц
Частота кадров : 31,250 кадров/сек (1536 SPF)
Битовая глубина : 16 бит
Метод сжатия : С потерями
Размер потока : 220 Мбайт (15%)
Язык : English
ServiceKind/String : Complete Main
Default : Нет
Forced : Нет

Меню
00:00:00.000 : Chapter 1
00:04:27.684 : Chapter 2
00:09:46.836 : Chapter 3
00:14:18.858 : Chapter 4
00:19:59.615 : Chapter 5
00:23:59.604 : Chapter 6
00:29:59.506 : Chapter 7
00:35:35.299 : Chapter 8
00:39:29.658 : Chapter 9
00:45:55.878 : Chapter 10
00:50:17.472 : Chapter 11
00:56:37.102 : Chapter 12
01:01:56.379 : Chapter 13
01:06:56.012 : Chapter 14
01:10:58.420 : Chapter 15
01:15:04.875 : Chapter 16

pb.wtf



Скачать Ночная смена через торрент http://pic1.kartinco.top/images/12/jdlj2.jpg Скачать фильм Ночная смена через торрент бесплантно в хорошем качестве Описание: Эми устраивается на работу в ночную смену в отеле, где десять лет назад были жестоко убиты все постояльцы. В первую же ночь ... 10 10 3
Торрент: Зарегистрирован [2018-12-25 05:36] · скачан: 129 раз
Статус: # сомнительно
Размер: 1.43 GB
Как cкачать? Как скачать Ночная смена через торрент | qTorrent

28-11-2019 20:33  

Отключить всю рекламу на сайте

25-12-2018 07:29 Ночная смена Скачать торрент  

талкивается CO таинственными событиямиpb.wtf



25-12-2018 12:12 Ночная смена Скачать торрент  

Вообще то ночная смена , это про крыс на ткацкой фабрике! Если не изменяет памят, то по Рэю Брэдбери! А это хрень какая то.pb.wtf



25-12-2018 16:50 Ночная смена Скачать торрент  

zimmermann писал(а):

Вообще то ночная смена , это про крыс на ткацкой фабрике! Если не изменяет памят, то по Рэю Брэдбери! А это хрень какая то.

Память изменяет. Стивен Кинг.pb.wtf



29-12-2018 02:35 Ночная смена Скачать торрент  

killdown писал(а):

zimmermann писал(а):

Вообще то ночная смена , это про крыс на ткацкой фабрике! Если не изменяет памят, то по Рэю Брэдбери! А это хрень какая то.

Память изменяет. Стивен Кинг.

pb.wtf



    Дорогой пользователь! Огромная просьба, поблагодарите релизера, оцените раздачу и оставьте свои комментарий, если Вы скачали Ночная смена через торрент бесплатно! Внесите свою лепту в развитие PiratBit!
    Комментировать посты могут только пользователи прошедшие не сложную регистрацию
    Показать сообщения:    

    Ночная смена через торрент
    Скачать бесплатно Ночная смена
    Ночная смена скачать торрент
    Ночная смена смотреть онлайн
    Cкачать фильм Ночная смена бесплатно
    Ночная смена скачать торрент в хорошем качестве
    Ночная смена смотреть онлайн бесплатно в хорошем качестве


    Вы не можете начинать темы
    Вы не можете отвечать на сообщения
    Вы не можете редактировать свои сообщения
    Вы не можете удалять свои сообщения
    Вы не можете голосовать в опросах
    Вы не можете прикреплять файлы к сообщениям
    Вы можете скачивать файлы