2 сезон

iTunes

MVO

1

2 сезон

iTunes

iTunes

1 сезон

RePack

30

Ultimate

ВАЖНО

ИГРА 18+

pack

RePack

MK11
pack

Легкие деньги

RePack

jed

RePack

fifa19

RePack

RDR2

RePack

NEED FOR SPEED™ PAYBACK

4 сезон

9 сезон

Бесстыжие 9 сезон

Все сериалы

все сериалы на PB.wtf

RePack

FAR CRY 5

Anonymous, доброй ночи, мы не успеваем собрать деньги на оплату серверов за декабрь и январь, помогите нам пожалуйста в это трудное время. В качестве благодарности мы отключим Вам всю рекламу на сайте (укажите свой ник в строку Ваше имя)!

×
  
Magnet ссылка

Шрамы 3D в 3Д / Paranormal Xperience 3D 3D (Серхи Вискайно / Sergi Vizcaino) [2011, Ужасы, Триллер, BDRip, 1080p] OverUnder / Вертикальная стереопара pb.wtf

Шрамы 3D в 3Д через торрент pb.wtf

Размер: 14.38 GB | Добавлен: 2 года назад | Торрент скачан:15 раз
Скачать  

25-12-2018 10:16 Шрамы 3D в 3Д Скачать торрент  

Шрамы 3D / Paranormal Xperience 3D

Год выпуска: 2011
Страна: Испания (Rodar y Rodar, Antena 3 Films)
Жанр: Ужасы, Триллер
Продолжительность: 01:30:12

Перевод: Профессиональный дублированный(лицензия)
Русские субтитры: нет
Режиссер: Серхи Вискайно / Sergi Vizcaino

В ролях: Альба Рибас, Амайя Саламанка, Макси Иглесиас, Луис Фернандез, Урсула Корберо, Оскар Синела, Мануэль Де Блас, Эдуард Фарело, Мигель Анхель Дженнер

Описание: Шестеро студентов медицинского института отправляются в заброшенную сеть пещер, где, по легенде, до сих пор блуждает призрак умершего доктора. Молодые люди уверены, что встречи с паранормальным в наш современный век — не более чем игра воображения. Да и экспедиция организована исключительно ради исследования мифов о человеческом подсознании. Но, оказавшись в пещерах, путешественники неожиданно начинают погибать один за другим самыми страшными способами…

Сэмпл: http://sendfile.su/1463933

Качество: BDrip, 1080p
Контейнер: MKV
Формат 3D: OverUnder / Вертикальная стереопара
Порядок ракурсов: левый ракурс первый
Видео кодек: x264
Аудио кодек: AC3
Видео: AVC / High@L5.0 / 23,976 fps / 1920х2160 / 21,7 Мбит/сек
Аудио: Русский / AC3 / 48 KHz / 5.1 ch / 640 Кбит/сек(лицензия)

ВНИМАНИЕ ! На встроенных ТВ-плеерах работать не будет!!!

ТВ Samsung в названии которого есть надпись Ultra HD , и LG Ultra HD 800 серии, LG C6P, Xiaomi Mi TV 2 воспроизводят полные стереопары встроенными плеерами
Железные плееры на которых воспроизводятся полные стереопары:Popcorn C-200 , Dune HD Smart D1 , Dune HD DUO , Dune HD Smart H1 , Dune HD Smart B1 , Dune HD Max , Dune HD TV-303D, Dune HD TV-102, Dune HD Base 3D, Philips HMP7001, Aura HD, MECOOL BB2
Чтобы изображение было на весь экран в плеере выставляем, если рип 1920х1600 - то выставляем 2.35:1 , если 1920х2160 - то выставляем 16:9
Общее
Уникальный идентификатор : 193542668784194187216981772647927596676 (0x919AF64E55F97EEDBD4A8C39E72B4684)
Полное имя : F:\закачки\Paranormal Xperience.Rip by SeRoGa00.mkv
Формат : Matroska
Версия формата : Version 2
Размер файла : 14,4 Гбайт
Продолжительность : 1 ч. 30 м.
Общий поток : 22,8 Мбит/сек
Дата кодирования : UTC 2018-12-25 09:27:00
Программа кодирования : mkvmerge v3.4.0 ('Rapunzel') сборка от May 15 2010 09:38:20
Библиотека кодирования : libebml v0.8.0 + libmatroska v0.9.0

Видео
Идентификатор : 1
Формат : AVC
Формат/Информация : Advanced Video Codec
Профиль формата : High@L5.0
Параметр CABAC формата : Да
Параметр ReFrames формата : 4 кадра
Идентификатор кодека : V_MPEG4/ISO/AVC
Продолжительность : 1 ч. 30 м.
Битрейт : 21,7 Мбит/сек
Ширина : 1920 пикселей
Высота : 2160 пикселей
Соотношение сторон : 0,889
Частота кадров : 23,976 кадра/сек
Цветовое пространство : YUV
Субдискретизация насыщенности : 4:2:0
Битовая глубина : 8 бит
Тип развёртки : Прогрессивная
Бит/(Пиксели*Кадры) : 0.218
Размер потока : 13,7 Гбайт (95%)
Заголовок : Rip by SeRoGa00
Библиотека кодирования : x264 core 155 r2901 7d0ff22
Настройки программы : cabac=1 / ref=4 / deblock=1:-3:-3 / analyse=0x3:0x113 / me=umh / subme=10 / psy=1 / psy_rd=1.00:0.15 / mixed_ref=1 / me_range=24 / chroma_me=1 / trellis=2 / 8x8dct=1 / cqm=0 / deadzone=21,11 / fast_pskip=1 / chroma_qp_offset=-3 / threads=18 / lookahead_threads=6 / sliced_threads=0 / nr=0 / decimate=0 / interlaced=0 / bluray_compat=0 / constrained_intra=0 / bframes=10 / b_pyramid=2 / b_adapt=2 / b_bias=0 / direct=3 / weightb=1 / open_gop=0 / weightp=2 / keyint=250 / keyint_min=23 / scenecut=40 / intra_refresh=0 / rc_lookahead=60 / rc=crf / mbtree=1 / crf=16.5 / qcomp=0.60 / qpmin=10 / qpmax=69 / qpstep=4 / vbv_maxrate=40000 / vbv_bufsize=40000 / crf_max=0.0 / nal_hrd=none / filler=0 / ip_ratio=1.40 / aq=1:1.00
Язык : English
Default : Нет
Forced : Нет

Аудио
Идентификатор : 2
Формат : AC-3
Формат/Информация : Audio Coding 3
Расширение режима : CM (complete main)
Параметр Endianness формата : Big
Идентификатор кодека : A_AC3
Продолжительность : 1 ч. 30 м.
Вид битрейта : Постоянный
Битрейт : 640 Кбит/сек
Каналы : 6 каналов
Расположение каналов : Front: L C R, Side: L R, LFE
Частота : 48,0 КГц
Битовая глубина : 16 бит
Метод сжатия : С потерями
Задержка видео : 2 с. 0 мс.
Размер потока : 413 Мбайт (3%)
Язык : Russian
Default : Да
Forced : Нет
скриншот  

скриншот  

скриншот  

скриншот  

скриншот  

скриншот  
pb.wtf



Скачать Шрамы 3D в 3Д через торрент https://c.radikal.ru/c42/1812/3f/911a88c98f10.png Скачать фильм Шрамы 3D в 3Д через торрент бесплантно в хорошем качестве Описание: Шестеро студентов медицинского института отправляются в заброшенную сеть пещер, где, по легенде, до сих пор блуждает призрак ... 5 10 1
Info! Золотая раздача, скачанное не засчитывается.
Торрент: Зарегистрирован [2018-12-25 10:16] · скачан: 15 раз
Статус: √ проверено
Размер: 14.38 GB
Как cкачать? Как скачать Шрамы 3D в 3Д через торрент | UTorrent

28-11-2019 20:33  

Отключить всю рекламу на сайте

    Дорогой пользователь! Огромная просьба, поблагодарите релизера, оцените раздачу и оставьте свои комментарий, если Вы скачали Шрамы 3D в 3Д через торрент бесплатно! Внесите свою лепту в развитие PiratBit!
    Комментировать посты могут только пользователи прошедшие не сложную регистрацию
    Показать сообщения:    

    Шрамы 3D в 3Д через торрент
    Скачать бесплатно Шрамы 3D в 3Д
    Шрамы 3D в 3Д скачать торрент
    Шрамы 3D в 3Д смотреть онлайн
    Cкачать фильм Шрамы 3D в 3Д бесплатно
    Шрамы 3D в 3Д скачать торрент в хорошем качестве
    Шрамы 3D в 3Д смотреть онлайн бесплатно в хорошем качестве


    Вы не можете начинать темы
    Вы не можете отвечать на сообщения
    Вы не можете редактировать свои сообщения
    Вы не можете удалять свои сообщения
    Вы не можете голосовать в опросах
    Вы не можете прикреплять файлы к сообщениям
    Вы можете скачивать файлы