Ссылка на приватное зеркало всего за 1$. Внимание количество ограничено!!!

OK

1+1

iTunes

мы

OK

1

WEB-DLRip

Джокер

Пифагор

Ведьмак / The Witcher сериал

iTunes

ПШазам

ОК

Оно 2

iTunes

30
pack

Вам бонус

ВАЖНО

!!Акция!!

Alien_RageХит недели

RePack

Resident Evil 21

ИГРА 18+

pack

RePack

jed

RePack

fifa19

RePack

Assassins Creed: Odyssey

RePack

NEED FOR SPEED™ PAYBACK

4 сезон

9 сезон

Бесстыжие 9 сезон

Все сериалы

все сериалы на PB.wtf

RePack

FAR CRY 5
  

Восхождение Банда Сингх Бахадура / Chaar Sahibzaade 2: Rise of Banda Singh Bahadur (Гарри Бавеха) [2016, Мультфильм, анимация, WEB-DL 720p] MVO [КОЛОБОК] pb.wtf

Восхождение Банда Сингх Бахадура через торрент pb.wtf

Размер: 4.56 GB | Добавлен: 1 год 1 мес. назад | Торрент скачан:20 раз
Скачать  

25-12-2018 10:51 Восхождение Банда Сингх Бахадура Скачать торрент  

Восхождение Банда Сингх Бахадура / Chaar Sahibzaade 2: Rise of Banda Singh Bahadur Год выпуска: 2016
Страна: Индия
Жанр: Мультфильм, анимация
Продолжительность: 02:15:28
Перевод: Любительский (многоголосый) | КОЛОБОК
Субтитры: отсутствуют

Режиссер: Гарри Бавеха

rating

В ролях:

Ом Пури

Описание:

Фильм основан на реальных событиях, происходивших в Северной Индии в 17-18 вв. и повествует о противостоянии сикхского героя Банда Сингх Бахадура и тирана империи Великих Моголов Вазир Хана.

Качество: WEB-DL 720p
Формат: MKV

Видео: h.264, 4 430 Кбит/с, 1280x536
Аудио#1: Русский, (AC3, 2 ch, 384 Кбит/с)
скриншот  скриншот  скриншот  

Общее
Уникальный идентификатор : 198215174363440491789006260544664581741 (0x951EDA9E07B7E4B791E9DFEAB8E9366D)
Полное имя : E:\торреннты\ChaarSahibzaade2RiseofBandaSinghBahadur2016.Pk.WEB_DL.72Op.mkv
Формат : Matroska
Версия формата : Version 2
Размер файла : 4,56 Гбайт
Продолжительность : 2 ч. 15 м.
Режим общего битрейта : Переменный
Общий поток : 4816 Кбит/сек
Дата кодирования : UTC 2018-12-25 08:28:13
Программа кодирования : mkvmerge v8.3.0 ('Over the Horizon') 64bit
Библиотека кодирования : libebml v1.3.1 + libmatroska v1.4.2

Видео
Идентификатор : 1
Формат : AVC
Формат/Информация : Advanced Video Codec
Профиль формата : High@L4.1
Настройки формата : CABAC / 4 Ref Frames
Параметр CABAC формата : Да
Параметр RefFrames формата : 4 кадра
Идентификатор кодека : V_MPEG4/ISO/AVC
Продолжительность : 2 ч. 15 м.
Вид битрейта : Переменный
Битрейт : 4430 Кбит/сек
Максимальный битрейт : 5000 Кбит/сек
Ширина : 1280 пикселей
Высота : 536 пикселей
Соотношение сторон : 2,40:1
Режим частоты кадров : Постоянный
Частота кадров : 23,976 (24000/1001) кадра/сек
Стандарт вещания : Component
Цветовое пространство : YUV
Субдискретизация насыщенности : 4:2:0
Битовая глубина : 8 бит
Тип развёртки : Прогрессивная
Бит/(Пиксели*Кадры) : 0.264
Размер потока : 4,10 Гбайт (90%)
Default : Да
Forced : Нет
Цветовой диапазон : Limited
Основные цвета : BT.709
Характеристики трансфера : BT.709
Коэффициенты матрицы : BT.709

Аудио
Идентификатор : 2
Формат : AC-3
Формат/Информация : Audio Coding 3
Идентификатор кодека : A_AC3
Продолжительность : 2 ч. 15 м.
Вид битрейта : Постоянный
Битрейт : 384 Кбит/сек
Каналы : 2 канала
Расположение каналов : Front: L R
Частота : 48,0 КГц
Частота кадров : 31,250 кадров/сек (1536 SPF)
Битовая глубина : 16 бит
Метод сжатия : С потерями
Размер потока : 372 Мбайт (8%)
ServiceKind/String : Complete Main
Default : Да
Forced : Нет

pb.wtf



Скачать Восхождение Банда Сингх Бахадура через торрент https://c.radikal.ru/c19/1812/20/da880630f0f9.jpg Скачать фильм Восхождение Банда Сингх Бахадура через торрент бесплантно в хорошем качестве Описание: Фильм основан на реальных событиях, происходивших в Северной Индии в 17-18 вв. и повествует о противостоянии сикхского героя ... 10 10 3
Торрент: Зарегистрирован [2018-12-25 10:51] · скачан: 20 раз
Статус: T временная
Размер: 4.56 GB
Как cкачать? Как скачать Восхождение Банда Сингх Бахадура через торрент | qTorrent

% Раздел Тема Автор DL S | L
T Фильмы (мультфильмы) cо спонсором показа (Новинки AVI/MKV) [ 2.05 GB ] Восхождение Банда Сингх Бахадура / Chaar Sahibzaade 2: Rise of Banda Singh Bahadur [2016 Мультфильм анимация WEB-DLRip] MVO [КОЛОБОК] bober100 Скачать
1 | 0
T Фильмы (мультфильмы) cо спонсором показа (Новинки AVI/MKV) [ 1.37 GB ] Восхождение Банда Сингх Бахадура / Chaar Sahibzaade 2: Rise of Banda Singh Bahadur [2016 Мультфильм анимация WEB-DLRip] MVO [КОЛОБОК] bober100 Скачать
1 | 0

28-11-2019 20:33  

Отключить всю рекламу на сайте

    Дорогой пользователь! Огромная просьба, поблагодарите релизера, оцените раздачу и оставьте свои комментарий, если Вы скачали Восхождение Банда Сингх Бахадура через торрент бесплатно! Внесите свою лепту в развитие PiratBit!
    Комментировать посты могут только пользователи прошедшие не сложную регистрацию
    Показать сообщения:    

    Восхождение Банда Сингх Бахадура через торрент
    Скачать бесплатно Восхождение Банда Сингх Бахадура
    Восхождение Банда Сингх Бахадура скачать торрент
    Восхождение Банда Сингх Бахадура смотреть онлайн
    Cкачать фильм Восхождение Банда Сингх Бахадура бесплатно
    Восхождение Банда Сингх Бахадура скачать торрент в хорошем качестве
    Восхождение Банда Сингх Бахадура смотреть онлайн бесплатно в хорошем качестве


    Вы не можете начинать темы
    Вы не можете отвечать на сообщения
    Вы не можете редактировать свои сообщения
    Вы не можете удалять свои сообщения
    Вы не можете голосовать в опросах
    Вы не можете прикреплять файлы к сообщениям
    Вы можете скачивать файлы