Ссылка на приватное зеркало всего за 1$. Внимание количество ограничено!!!

OK

1+1

iTunes

мы

OK

1

WEB-DLRip

Джокер

Пифагор

Ведьмак / The Witcher сериал

iTunes

ПШазам

ОК

Оно 2

iTunes

30
pack

Вам бонус

ВАЖНО

!!Акция!!

Alien_RageХит недели

RePack

Resident Evil 21

ИГРА 18+

pack

RePack

jed

RePack

fifa19

RePack

Assassins Creed: Odyssey

RePack

NEED FOR SPEED™ PAYBACK

4 сезон

9 сезон

Бесстыжие 9 сезон

Все сериалы

все сериалы на PB.wtf

RePack

FAR CRY 5
  

Детский дом / Милвуд / Milwood / The Orphanage (Ивэн Голдман, Джимми Скэнлон) [2013, ужасы, триллер, драма, детектив, BDRip 720p] MVO [Официальный звук] pb.wtf

Детский дом через торрент pb.wtf

Размер: 4.67 GB | Добавлен: 1 год 1 мес. назад | Торрент скачан:22 раза
Скачать  

25-12-2018 12:37 Детский дом Скачать торрент  

Детский дом / Милвуд / Milwood / The Orphanage Год выпуска: 2013
Страна: США, Болгария
Жанр: ужасы, триллер, драма, детектив
Продолжительность: 01:33:39
Перевод: Профессиональный многоголосый | Официальный звук
Субтитры: отсутствуют

Режиссер: Ивэн Голдман, Джимми Скэнлон

rating

В ролях:

Кристиан Гудвин, Джимми Скэнлон, Мишель Романо, Дон Темпеста, Труди Гудман, Тиффани Шепис, Винни Велла, Кевин Барбейр, Майкл Турбер

Описание:

После смерти родителей, 10-летний сирота Натан Перри отправляется в детский дом и школу-интернат для мальчиков. Натан становится жертвой непредсказуемого террора и неадекватного поведения, все боятся палаты Б.

Качество: BDRip 720p
Формат: MKV

Видео: h.264,6 683 kb/s, 1280x552
Аудио#1: Русский (AC3, 2 ch, 448 Кбит/с)
скриншот  скриншот  скриншот  

Общее
Уникальный идентификатор : 220888102247150506624666502717261550238 (0xA62D8044A8E9C3D1B13DC9786235129E)
Полное имя : E:\торреннты\Milwood.2013.Pof.BDRip.72Op_KOSHARA.mkv
Формат : Matroska
Версия формата : Version 2
Размер файла : 4,67 Гбайт
Продолжительность : 1 ч. 33 м.
Режим общего битрейта : Переменный
Общий поток : 7133 Кбит/сек
Дата кодирования : UTC 2018-12-24 19:12:55
Программа кодирования : mkvmerge v8.3.0 ('Over the Horizon') 64bit
Библиотека кодирования : libebml v1.3.1 + libmatroska v1.4.2

Видео
Идентификатор : 1
Формат : AVC
Формат/Информация : Advanced Video Codec
Профиль формата : High@L4.1
Настройки формата : CABAC / 4 Ref Frames
Параметр CABAC формата : Да
Параметр RefFrames формата : 4 кадра
Идентификатор кодека : V_MPEG4/ISO/AVC
Продолжительность : 1 ч. 33 м.
Вид битрейта : Переменный
Битрейт : 6683 Кбит/сек
Максимальный битрейт : 7500 Кбит/сек
Ширина : 1280 пикселей
Высота : 552 пикселя
Соотношение сторон : 2,35:1
Режим частоты кадров : Постоянный
Частота кадров : 23,976 (24000/1001) кадра/сек
Стандарт вещания : Component
Цветовое пространство : YUV
Субдискретизация насыщенности : 4:2:0
Битовая глубина : 8 бит
Тип развёртки : Прогрессивная
Бит/(Пиксели*Кадры) : 0.386
Размер потока : 4,28 Гбайт (92%)
Default : Да
Forced : Нет
Цветовой диапазон : Limited
Основные цвета : BT.709
Характеристики трансфера : BT.709
Коэффициенты матрицы : BT.709

Аудио
Идентификатор : 2
Формат : AC-3
Формат/Информация : Audio Coding 3
Идентификатор кодека : A_AC3
Продолжительность : 1 ч. 33 м.
Вид битрейта : Постоянный
Битрейт : 448 Кбит/сек
Каналы : 2 канала
Расположение каналов : Front: L R
Частота : 48,0 КГц
Частота кадров : 31,250 кадров/сек (1536 SPF)
Битовая глубина : 16 бит
Метод сжатия : С потерями
Размер потока : 300 Мбайт (6%)
ServiceKind/String : Complete Main
Default : Да
Forced : Нет

pb.wtf



Скачать Детский дом через торрент https://a.radikal.ru/a29/1812/26/7aaad617ba1f.jpg Скачать фильм Детский дом через торрент бесплантно в хорошем качестве Описание: После смерти родителей, 10-летний сирота Натан Перри отправляется в детский дом и школу-интернат для мальчиков. Натан становится ... 10 10 3
Торрент: Зарегистрирован [2018-12-25 12:37] · скачан: 22 раз
Статус: # сомнительно
Размер: 4.67 GB
Как cкачать? Как скачать Детский дом через торрент | qTorrent

% Раздел Тема Автор DL S | L
T Фильмы (мультфильмы) cо спонсором показа (Новинки AVI/MKV) [ 1.37 GB ] Детский дом / Милвуд / Milwood / The Orphanage [2013 HDRip] MVO [Официальный звук] bober100 Скачать
1 | 0

28-11-2019 20:33  

Отключить всю рекламу на сайте

    Дорогой пользователь! Огромная просьба, поблагодарите релизера, оцените раздачу и оставьте свои комментарий, если Вы скачали Детский дом через торрент бесплатно! Внесите свою лепту в развитие PiratBit!
    Комментировать посты могут только пользователи прошедшие не сложную регистрацию
    Показать сообщения:    

    Детский дом через торрент
    Скачать бесплатно Детский дом
    Детский дом скачать торрент
    Детский дом смотреть онлайн
    Cкачать фильм Детский дом бесплатно
    Детский дом скачать торрент в хорошем качестве
    Детский дом смотреть онлайн бесплатно в хорошем качестве


    Вы не можете начинать темы
    Вы не можете отвечать на сообщения
    Вы не можете редактировать свои сообщения
    Вы не можете удалять свои сообщения
    Вы не можете голосовать в опросах
    Вы не можете прикреплять файлы к сообщениям
    Вы можете скачивать файлы