Ссылка на приватное зеркало всего за 1$. Внимание количество ограничено!!!

OK

1+1

iTunes

мы

OK

1

WEB-DLRip

Джокер

Пифагор

Ведьмак / The Witcher сериал

iTunes

ПШазам

ОК

Оно 2

iTunes

30
pack

Вам бонус

ВАЖНО

!!Акция!!

Alien_RageХит недели

RePack

Resident Evil 21

ИГРА 18+

pack

RePack

jed

RePack

fifa19

RePack

Assassins Creed: Odyssey

RePack

NEED FOR SPEED™ PAYBACK

4 сезон

9 сезон

Бесстыжие 9 сезон

Все сериалы

все сериалы на PB.wtf

RePack

FAR CRY 5
  

Одно изысканное убийство / A Fancy Piece of Homicide (Джозеф Вархола) [2017, Триллер, криминал, детектив, семейный, WEB-DL 720p] MVO ["Синема УС"] pb.wtf

Одно изысканное убийство через торрент pb.wtf

Размер: 3.84 GB | Добавлен: 1 год 1 мес. назад | Торрент скачан:49 раз
Скачать  

25-12-2018 13:07 Одно изысканное убийство Скачать торрент  

Одно изысканное убийство / A Fancy Piece of Homicide Год выпуска: 2017
Страна: США
Жанр: Триллер, криминал, детектив, семейный
Продолжительность: 01:47:39
Перевод: Любительский (многоголосый) | "Синема УС"
Субтитры: отсутствуют

Режиссер: Джозеф Вархола

rating

В ролях:

Бинго О'Мэлли, Патрик Джордан, Фил Нардоззи, Эдвард Пфайфер, Марк Тьерно, Джон В. Иванонкив, Дебби Фогель, Джеймс Верли, Карен Баумм, Тиффани Кемп

Описание:

Отсидев срок в тюрьме за убийство человека, следить за которым его когда-то наняли, бывший частный детектив хочет написать мемуары и пытается восстановить цепь событий, которые привели к той роковой развязке. Однажды ночью он находит рядом с входной дверью конверт с фотографией, имеющей какое-то отношение к произошедшему, а чуть позже в баре знакомится с мужчиной, которому тоже приходят таинственные послания.

Качество: WEB-DL 720p
Формат: MKV

Видео: h.264, 4 715 kb/s, 1280x544
Аудио#1: Русский, (AC3, 2 ch, 384 Кбит/с)
скриншот  скриншот  скриншот  

Общее
Уникальный идентификатор : 233722574764639421103345546016526947166 (0xAFD5549E64053E90A5A41EDDA5FFD35E)
Полное имя : E:\торреннты\A.Fancy.Piece.of.Homicide.2O17.P.WEB-DL.72Op_KOSHARA.mkv
Формат : Matroska
Версия формата : Version 2
Размер файла : 3,84 Гбайт
Продолжительность : 1 ч. 47 м.
Режим общего битрейта : Переменный
Общий поток : 5101 Кбит/сек
Дата кодирования : UTC 2018-12-25 10:30:19
Программа кодирования : mkvmerge v8.3.0 ('Over the Horizon') 64bit
Библиотека кодирования : libebml v1.3.1 + libmatroska v1.4.2

Видео
Идентификатор : 1
Формат : AVC
Формат/Информация : Advanced Video Codec
Профиль формата : High@L4.1
Настройки формата : CABAC / 4 Ref Frames
Параметр CABAC формата : Да
Параметр RefFrames формата : 4 кадра
Идентификатор кодека : V_MPEG4/ISO/AVC
Продолжительность : 1 ч. 47 м.
Вид битрейта : Переменный
Битрейт : 4715 Кбит/сек
Максимальный битрейт : 5500 Кбит/сек
Ширина : 1280 пикселей
Высота : 544 пикселя
Соотношение сторон : 2,35:1
Режим частоты кадров : Постоянный
Частота кадров : 23,976 (24000/1001) кадра/сек
Стандарт вещания : Component
Цветовое пространство : YUV
Субдискретизация насыщенности : 4:2:0
Битовая глубина : 8 бит
Тип развёртки : Прогрессивная
Бит/(Пиксели*Кадры) : 0.276
Размер потока : 3,47 Гбайт (90%)
Default : Да
Forced : Нет
Цветовой диапазон : Limited
Основные цвета : BT.709
Характеристики трансфера : BT.709
Коэффициенты матрицы : BT.709

Аудио
Идентификатор : 2
Формат : AC-3
Формат/Информация : Audio Coding 3
Идентификатор кодека : A_AC3
Продолжительность : 1 ч. 47 м.
Вид битрейта : Постоянный
Битрейт : 384 Кбит/сек
Каналы : 2 канала
Расположение каналов : Front: L R
Частота : 48,0 КГц
Частота кадров : 31,250 кадров/сек (1536 SPF)
Битовая глубина : 16 бит
Метод сжатия : С потерями
Размер потока : 296 Мбайт (8%)
ServiceKind/String : Complete Main
Default : Да
Forced : Нет

pb.wtf



Скачать Одно изысканное убийство через торрент https://d.radikal.ru/d26/1812/56/4e06937864c1.jpg Скачать фильм Одно изысканное убийство через торрент бесплантно в хорошем качестве Описание: Отсидев срок в тюрьме за убийство человека, следить за которым его когда-то наняли, бывший частный детектив хочет написать ... 9.8 10 4
Торрент: Зарегистрирован [2018-12-25 13:07] · скачан: 49 раз
Статус: T временная
Размер: 3.84 GB
Как cкачать? Как скачать Одно изысканное убийство через торрент | qTorrent

% Раздел Тема Автор DL S | L
T Фильмы (мультфильмы) cо спонсором показа (Новинки AVI/MKV) [ 1.35 GB ] Одно изысканное убийство / A Fancy Piece of Homicide [2017 WEB-DLRip] MVO ["Синема УС"] bober100 Скачать
1 | 0

28-11-2019 20:33  

Отключить всю рекламу на сайте

    Дорогой пользователь! Огромная просьба, поблагодарите релизера, оцените раздачу и оставьте свои комментарий, если Вы скачали Одно изысканное убийство через торрент бесплатно! Внесите свою лепту в развитие PiratBit!
    Комментировать посты могут только пользователи прошедшие не сложную регистрацию
    Показать сообщения:    

    Одно изысканное убийство через торрент
    Скачать бесплатно Одно изысканное убийство
    Одно изысканное убийство скачать торрент
    Одно изысканное убийство смотреть онлайн
    Cкачать фильм Одно изысканное убийство бесплатно
    Одно изысканное убийство скачать торрент в хорошем качестве
    Одно изысканное убийство смотреть онлайн бесплатно в хорошем качестве


    Вы не можете начинать темы
    Вы не можете отвечать на сообщения
    Вы не можете редактировать свои сообщения
    Вы не можете удалять свои сообщения
    Вы не можете голосовать в опросах
    Вы не можете прикреплять файлы к сообщениям
    Вы можете скачивать файлы