Ссылка на приватное зеркало всего за 1$. Внимание количество ограничено!!!

OK

1+1

iTunes

мы

OK

1

WEB-DLRip

Джокер

Пифагор

Ведьмак / The Witcher сериал

iTunes

ПШазам

ОК

Оно 2

iTunes

30
pack

Вам бонус

ВАЖНО

!!Акция!!

Alien_RageХит недели

RePack

Resident Evil 21

ИГРА 18+

pack

RePack

jed

RePack

fifa19

RePack

Assassins Creed: Odyssey

RePack

NEED FOR SPEED™ PAYBACK

4 сезон

9 сезон

Бесстыжие 9 сезон

Все сериалы

все сериалы на PB.wtf

RePack

FAR CRY 5
  

Cделка / El pacto (Дэвид Виктори) [2018, Ужасы, триллер, BDRip 720p] MVO ["Синема УС"] pb.wtf

Cделка через торрент pb.wtf

Раздают: 1 [ 0 KB/s ]
Размер: 5.27 GB | Добавлен: 1 год 1 мес. назад | Торрент скачан:88 раз
Скачать  

25-12-2018 13:34 Cделка Скачать торрент  

Cделка / El pactoГод выпуска: 2018
Страна: Испания
Жанр: Ужасы, триллер
Продолжительность: 01:46:44
Перевод: Любительский (многоголосый) | "Синема УС"
Субтитры: отсутствуют

Режиссер: Дэвид Виктори

rating

В ролях:

Белен Руэда, Мирейя Ориоль, Дарио Грандинетти, Антонио Дуран «Моррис», Хосеан Бенгоэчеа, Карлос Фабрегас, Ванесса Бучака, Себастьян Монтечино

Описание:

Когда Моника узнает, что её дочь умирает, она решается на крайние меры, чтобы спасти её.

Качество: BDRip 720p
Формат: MKV

Видео: h.264, 6 615 Кбит/с, 1280x536
Аудио: Русский (AC3, 2 ch, 448 Кбит/с)
скриншот  скриншот  скриншот  

Общее
Уникальный идентификатор : 247344082711336301002751636991219546269 (0xBA14BCCFD1D1E75C930F3CDEAE97389D)
Полное имя : E:\торреннты\The.pact.2018.P.BDRip.72Op.mkv
Формат : Matroska
Версия формата : Version 2
Размер файла : 5,27 Гбайт
Продолжительность : 1 ч. 46 м.
Режим общего битрейта : Переменный
Общий поток : 7065 Кбит/сек
Дата кодирования : UTC 2018-12-25 12:22:32
Программа кодирования : mkvmerge v8.3.0 ('Over the Horizon') 64bit
Библиотека кодирования : libebml v1.3.1 + libmatroska v1.4.2

Видео
Идентификатор : 1
Формат : AVC
Формат/Информация : Advanced Video Codec
Профиль формата : High@L4.1
Настройки формата : CABAC / 4 Ref Frames
Параметр CABAC формата : Да
Параметр RefFrames формата : 4 кадра
Идентификатор кодека : V_MPEG4/ISO/AVC
Продолжительность : 1 ч. 46 м.
Вид битрейта : Переменный
Битрейт : 6615 Кбит/сек
Максимальный битрейт : 7500 Кбит/сек
Ширина : 1280 пикселей
Высота : 536 пикселей
Соотношение сторон : 2,40:1
Режим частоты кадров : Постоянный
Частота кадров : 23,976 (24000/1001) кадра/сек
Стандарт вещания : Component
Цветовое пространство : YUV
Субдискретизация насыщенности : 4:2:0
Битовая глубина : 8 бит
Тип развёртки : Прогрессивная
Бит/(Пиксели*Кадры) : 0.394
Размер потока : 4,83 Гбайт (92%)
Default : Да
Forced : Нет
Цветовой диапазон : Limited
Основные цвета : BT.709
Характеристики трансфера : BT.709
Коэффициенты матрицы : BT.709

Аудио
Идентификатор : 2
Формат : AC-3
Формат/Информация : Audio Coding 3
Идентификатор кодека : A_AC3
Продолжительность : 1 ч. 46 м.
Вид битрейта : Постоянный
Битрейт : 448 Кбит/сек
Каналы : 2 канала
Расположение каналов : Front: L R
Частота : 48,0 КГц
Частота кадров : 31,250 кадров/сек (1536 SPF)
Битовая глубина : 16 бит
Метод сжатия : С потерями
Размер потока : 342 Мбайт (6%)
ServiceKind/String : Complete Main
Default : Да
Forced : Нет

pb.wtf



Скачать Cделка через торрент https://a.radikal.ru/a24/1812/88/eef28d102b13.jpg Скачать фильм Cделка через торрент бесплантно в хорошем качестве Описание: Когда Моника узнает, что её дочь умирает, она решается на крайние меры, чтобы спасти ... 10 10 6
Торрент: Зарегистрирован [2018-12-25 13:34] · скачан: 88 раз
Статус: # сомнительно
Размер: 5.27 GB
Как cкачать? Как скачать Cделка через торрент | qTorrent

% Раздел Тема Автор DL S | L
T Фильмы (мультфильмы) cо спонсором показа (Новинки AVI/MKV) [ 1.35 GB ] Cделка / El pacto [2018 HDRip] MVO ["Синема УС"] bober100 Скачать
2 | 0

28-11-2019 20:33  

Отключить всю рекламу на сайте

    Дорогой пользователь! Огромная просьба, поблагодарите релизера, оцените раздачу и оставьте свои комментарий, если Вы скачали Cделка через торрент бесплатно! Внесите свою лепту в развитие PiratBit!
    Комментировать посты могут только пользователи прошедшие не сложную регистрацию
    Показать сообщения:    

    Cделка через торрент
    Скачать бесплатно Cделка
    Cделка скачать торрент
    Cделка смотреть онлайн
    Cкачать фильм Cделка бесплатно
    Cделка скачать торрент в хорошем качестве
    Cделка смотреть онлайн бесплатно в хорошем качестве


    Вы не можете начинать темы
    Вы не можете отвечать на сообщения
    Вы не можете редактировать свои сообщения
    Вы не можете удалять свои сообщения
    Вы не можете голосовать в опросах
    Вы не можете прикреплять файлы к сообщениям
    Вы можете скачивать файлы