2 сезон

iTunes

MVO

1

2 сезон

iTunes

iTunes

1 сезон

RePack

30

Новинка

ВАЖНО

ИГРА 18+

pack

RePack

MK11
pack

Легкие деньги

RePack

jed

RePack

fifa19

RePack

RDR2

RePack

NEED FOR SPEED™ PAYBACK

4 сезон

9 сезон

Бесстыжие 9 сезон

Все сериалы

все сериалы на PB.wtf

RePack

FAR CRY 5

Anonymous, доброе утро, мы не успеваем собрать деньги на оплату серверов за декабрь и январь, помогите нам пожалуйста в это трудное время. В качестве благодарности мы отключим Вам всю рекламу на сайте (укажите свой ник в строку Ваше имя)!

×
  
Magnet ссылка

Чёрное Рождество / Black Christmas (Боб Кларк) [1974, ужасы, триллер, детектив, BDRip 1080p by msltel] DVO, 2 x AVO pb.wtf

Чёрное Рождество через торрент pb.wtf

Размер: 10.55 GB | Добавлен: 2 года назад | Торрент скачан:7 раз
Скачать  

26-12-2018 07:39 Чёрное Рождество Скачать торрент  

Название: Чёрное Рождество
Оригинальное название: Black Christmas
Год выпуска: 1974
Страна: Канада
Жанр: ужасы, детектив, триллер
Продолжительность: 01:37:49
Перевод: профессиональный двухголосый, авторский

Режиссер: Боб Кларк
В ролях: Оливия Хасси, Кейр Дуллеа, Марго Киддер, Джон Сэксон, Мэриэн Уолдман, Андреа Мартин, Джеймс Эдмонд, Даг МакГрат, Арт Хиндл, Линн Гриффин, Майкл Раппорт, Лесли Карлсон, Марта Гибсон, Джон Раттер, Роберт Уорнер, Сид Браун, Джек Ван Эвера, Лес Руби, Марсия Даймонд, Пэм Барни, Роберт Хоукинс, Дэвид Клемент, Джулиан Рид, Дэйв Манн, Джон Стоунхэм ст., Том Формен

О фильме: Университетский городок в Бедфорде. Студентки готовятся отправиться на зимние рождественские каникулы. Барб просит своих подруг Джесс и Фил остаться с ней на несколько дней, чтобы покататься на лыжах. В доме звонит телефон. Барб берёт трубку, но на том конце провода никто не отвечает. Потом мужской голос смеётся и говорит разные непристойности. Барб обзывает говорящего, на что тот отвечает, что убьёт её. Барб бросает трубку. После этого звонка девушки из городка начинают потихоньку погибать одна за одной. До утра дотянут немногие...



Качество: BDRip 1080p
Формат: MKV
Видео: MPEG-4 AVC, 13.9 Mбит/с, 1920x1080, 23.976 кадр/с
Аудио 1: русский, AC3, 192 kbps, 2 ch, 48 kHz [закадровый двухголосый]
Аудио 2: русский, AC3, 448 kbps, 6 ch, 48 kHz [авторский, Сергей Визгунов]
Аудио 3: русский, AC3, 448 kbps, 6 ch, 48 kHz [авторский, Андрей Дольский]
Аудио 4: английский, AC3, 448 kbps, 6 ch, 48 kHz [оригинал]
Общее
Уникальный идентификатор : 234493133227856062977538130523788561481 (0xB069BC158A30B4B380836E93489A4C49)
Полное имя : D:\Video\Чёрное рождество.1974.BDRip 1080p by msltel.mkv
Формат : Matroska
Версия формата : Version 4
Размер файла : 10,5 Гбайт
Продолжительность : 1 ч. 37 м.
Общий поток : 15,4 Мбит/сек
Название фильма : Rip by msltel
Дата кодирования : UTC 2018-12-26 06:58:39
Программа кодирования : mkvmerge v8.2.0 ('World of Adventure') 64bit
Библиотека кодирования : libebml v1.3.1 + libmatroska v1.4.2

Видео
Идентификатор : 1
Формат : AVC
Формат/Информация : Advanced Video Codec
Профиль формата : High@L4.1
Настройки формата : CABAC / 4 Ref Frames
Параметр CABAC формата : Да
Параметр RefFrames формата : 4 кадра
Идентификатор кодека : V_MPEG4/ISO/AVC
Продолжительность : 1 ч. 37 м.
Битрейт : 13,9 Мбит/сек
Ширина : 1920 пикселей
Высота : 1080 пикселей
Соотношение сторон : 16:9
Режим частоты кадров : Постоянный
Частота кадров : 23,976 (24000/1001) кадра/сек
Цветовое пространство : YUV
Субдискретизация насыщенности : 4:2:0
Битовая глубина : 8 бит
Тип развёртки : Прогрессивная
Бит/(Пиксели*Кадры) : 0.280
Размер потока : 9,50 Гбайт (90%)
Библиотека кодирования : x264 core 157 r2935 545de2f
Настройки программы : cabac=1 / ref=4 / deblock=1:-2:-2 / analyse=0x3:0x113 / me=umh / subme=11 / psy=1 / psy_rd=1.00:0.15 / mixed_ref=1 / me_range=32 / chroma_me=1 / trellis=2 / 8x8dct=1 / cqm=0 / deadzone=21,11 / fast_pskip=0 / chroma_qp_offset=-3 / threads=6 / lookahead_threads=1 / sliced_threads=0 / nr=0 / decimate=1 / interlaced=0 / bluray_compat=0 / constrained_intra=0 / bframes=12 / b_pyramid=2 / b_adapt=2 / b_bias=0 / direct=1 / weightb=1 / open_gop=0 / weightp=2 / keyint=230 / keyint_min=23 / scenecut=40 / intra_refresh=0 / rc_lookahead=40 / rc=crf / mbtree=0 / crf=20.5 / qcomp=0.60 / qpmin=0 / qpmax=69 / qpstep=4 / vbv_maxrate=62500 / vbv_bufsize=78125 / crf_max=0.0 / nal_hrd=none / filler=0 / ip_ratio=1.40 / pb_ratio=1.30 / aq=1:1.00
Язык : English
Default : Да
Forced : Нет

Аудио #1
Идентификатор : 2
Формат : AC-3
Формат/Информация : Audio Coding 3
Коммерческое название : Dolby Digital
Идентификатор кодека : A_AC3
Продолжительность : 1 ч. 37 м.
Вид битрейта : Постоянный
Битрейт : 192 Кбит/сек
Каналы : 2 канала
Channel layout : L R
Частота : 48,0 КГц
Частота кадров : 31,250 кадров/сек (1536 SPF)
Битовая глубина : 16 бит
Метод сжатия : С потерями
Размер потока : 134 Мбайт (1%)
Заголовок : DVO
Язык : Russian
ServiceKind/String : Complete Main
Default : Да
Forced : Нет

Аудио #2
Идентификатор : 3
Формат : AC-3
Формат/Информация : Audio Coding 3
Коммерческое название : Dolby Digital
Идентификатор кодека : A_AC3
Продолжительность : 1 ч. 37 м.
Вид битрейта : Постоянный
Битрейт : 448 Кбит/сек
Каналы : 6 каналов
Channel layout : L R C LFE Ls Rs
Частота : 48,0 КГц
Частота кадров : 31,250 кадров/сек (1536 SPF)
Битовая глубина : 16 бит
Метод сжатия : С потерями
Размер потока : 313 Мбайт (3%)
Заголовок : Сергей Визгунов
Язык : Russian
ServiceKind/String : Complete Main
Default : Нет
Forced : Нет

Аудио #3
Идентификатор : 4
Формат : AC-3
Формат/Информация : Audio Coding 3
Коммерческое название : Dolby Digital
Идентификатор кодека : A_AC3
Продолжительность : 1 ч. 37 м.
Вид битрейта : Постоянный
Битрейт : 448 Кбит/сек
Каналы : 6 каналов
Channel layout : L R C LFE Ls Rs
Частота : 48,0 КГц
Частота кадров : 31,250 кадров/сек (1536 SPF)
Битовая глубина : 16 бит
Метод сжатия : С потерями
Размер потока : 313 Мбайт (3%)
Заголовок : Андрей Дольский
Язык : Russian
ServiceKind/String : Complete Main
Default : Нет
Forced : Нет

Аудио #4
Идентификатор : 5
Формат : AC-3
Формат/Информация : Audio Coding 3
Коммерческое название : Dolby Digital
Идентификатор кодека : A_AC3
Продолжительность : 1 ч. 37 м.
Вид битрейта : Постоянный
Битрейт : 448 Кбит/сек
Каналы : 6 каналов
Channel layout : L R C LFE Ls Rs
Частота : 48,0 КГц
Частота кадров : 31,250 кадров/сек (1536 SPF)
Битовая глубина : 16 бит
Метод сжатия : С потерями
Размер потока : 313 Мбайт (3%)
Заголовок : original
Язык : English
ServiceKind/String : Complete Main
Default : Нет
Forced : Нет

Меню
00:00:00.000 : en:The Sorority House
00:03:46.101 : en:The Attic Room
00:06:37.397 : en:An Obscene Phone Call
00:10:18.618 : en:Who is That?
00:14:12.185 : en:Peter Calls
00:16:25.318 : en:Mr. Harrison Waits
00:20:58.466 : en:The Leaning Tower of Pisa
00:22:49.368 : en:I'm Pregnant
00:25:12.928 : en:What Your Mother and I Must Know Is...
00:27:53.088 : en:The Police Station
00:29:44.616 : en:The Tortured Pianist
00:32:18.728 : en:Dinner with Mr. Harrison
00:35:23.121 : en:The Grand Piano
00:36:50.208 : en:Searchingfor Janice
00:38:27.096 : en:Luring Mrs. Mac
00:42:35.595 : en:Is That My Janice?
00:43:56.884 : en:Stop Me?
00:47:50.868 : en:Let's Get Married
00:50:39.870 : en:She Gave it to You?
00:52:20.095 : en:Having a Wart Removed
00:54:34.271 : en:Fuller Investigates
00:57:25.025 : en:I Just Know Claire is Dead
00:59:35.572 : en:Rocking Claire
01:02:45.387 : en:THE Glass Unicorn
01:05:59.914 : en:Fuller Listens In
01:08:48.791 : en:Listening to Jess and Phyll
01:11:34.624 : en:You Can't Kill the Baby
01:15:54.467 : en:Phyll Checks on Barb
01:17:18.968 : en:Tracing the Call
01:19:40.526 : en:The Revelation
01:20:47.342 : en:The Caller is in the House
01:23:00.767 : en:Spying on Jess
01:25:15.694 : en:Chasing Jess
01:29:52.804 : en:The Police Arrive
01:31:16.471 : en:Agnes, It's Me Billy
01:36:25.780 : en:The Final Phone Call
pb.wtf



Скачать Чёрное Рождество через торрент https://a.radikal.ru/a16/1812/ef/76688751602f.jpg Скачать фильм Чёрное Рождество через торрент бесплантно в хорошем качестве О фильме: Университетский городок в Бедфорде. Студентки готовятся отправиться на зимние рождественские каникулы. Барб просит своих подруг ... 7.7 10 3
Info! Золотая раздача, скачанное не засчитывается.
Торрент: Зарегистрирован [2018-12-26 07:39] · скачан: 7 раз
Статус: √ проверено
Размер: 10.55 GB
Как cкачать? Как скачать Чёрное Рождество через торрент | UTorrent

% Раздел Тема Автор DL S | L
Фильмы [HD 720p, 1080p] (Хороший звук DUB, MVO) [ 5.36 GB ] Чёрное Рождество / Black Christmas [1974 BDRip 720p by msltel] DVO 2 x AVO msltel Скачать
1 | 0

28-11-2019 20:33  

Отключить всю рекламу на сайте

    Дорогой пользователь! Огромная просьба, поблагодарите релизера, оцените раздачу и оставьте свои комментарий, если Вы скачали Чёрное Рождество через торрент бесплатно! Внесите свою лепту в развитие PiratBit!
    Комментировать посты могут только пользователи прошедшие не сложную регистрацию
    Показать сообщения:    

    Чёрное Рождество через торрент
    Скачать бесплатно Чёрное Рождество
    Чёрное Рождество скачать торрент
    Чёрное Рождество смотреть онлайн
    Cкачать фильм Чёрное Рождество бесплатно
    Чёрное Рождество скачать торрент в хорошем качестве
    Чёрное Рождество смотреть онлайн бесплатно в хорошем качестве


    Вы не можете начинать темы
    Вы не можете отвечать на сообщения
    Вы не можете редактировать свои сообщения
    Вы не можете удалять свои сообщения
    Вы не можете голосовать в опросах
    Вы не можете прикреплять файлы к сообщениям
    Вы можете скачивать файлы