Ссылка на приватное зеркало нашего сайта всего за 1$. Внимание количество ограничено!!!

2 сезон

iTunes

1 сезон

1

2 сезон

2 сезон

iTunes

1 сезон

RePack

30

Ultimate

ВАЖНО

ИГРА 18+

pack

RePack

MK11
pack

Забери бонус

RePack

jed

!!Акция!!

Alien_Rage

RePack

fifa19

RePack

Assassins Creed: Odyssey

RePack

NEED FOR SPEED™ PAYBACK

4 сезон

9 сезон

Бесстыжие 9 сезон

Все сериалы

все сериалы на PB.wtf

RePack

FAR CRY 5
  

Секретные материалы / The X-Files / Сезон: 11 / Серии 1-10 из 10 (Крис Картер, Дэрин Морган, Глен Морган) [2018, США, фантастика, триллер, драма, WEBRip, WEB-DLRip] MVO [BaibaKo] pb.wtf

Секретные материалы через торрент pb.wtf

Размер: 4.88 GB | Добавлен: 2 года 8 мес. назад | Торрент скачан:79 раз
Скачать  

05-01-2018 01:16 Секретные материалы Скачать торрент  


Секретные материалы / The X-Files

«Истина все еще где-то рядом»


  • Год выпуска: 2018
  • Страна: США
  • Жанр: фантастика, триллер, драма, детектив
  • Продолжительность: ~ 00:43:00 (Серия)
  • Перевод: Профессиональный многоголосый закадровый [BaibaKo]
  • Режиссер: Крис Картер / Chris Carter, Дэрин Морган / Darin Morgan, Глен Морган / Glen Morgan
  • В ролях:

    Дэвид Духовны (Fox Mulder), Джиллиан Андерсон (Dana Scully), Митч Пилледжи (Walter Skinner), Уильям Б. Дэвис (Smoking Man), Робби Амелл (Agent Miller), Джоэл МакХэйл (Tad O'Malley), Эндрю Моргадо (Charlie Scully), Лорен Эмброуз (Agent Einstein), Гардинер Миллар (Man in Suit), Ализа Веллани (Sandeep), Даниэла Диб (Mulders Dance Partner), Шейла Ларкен (Margaret Scully)


  • Специальные агенты ФБР, Фокс Малдер и Дана Скалли, снова работают вместе, чтобы расследовать странные и необъяснимые дела, связанные с паранормальными явлениями.
  • Рейтинг:

    rating
  • Качество: WEBRip, WEB-DLRip
  • Формат: :AVI
  • Видео кодек: XviD
  • Аудио кодек: MP3
  • Видео: 1483 Кбит/сек, 720*400 (16:9), в 23,976 (24000/1001) кадра/сек, MPEG-4 Visual (XviD)
  • Аудио №1: русский 192 Кбит/сек, 48,0 КГц, 2 канала, MPEG Audio (MP3) |[BaibaKo]|
  • Релиз от: GEKADOL

    Внимание! Раздача ведётся путём добавления новых серий; при каждом добавлении создаётся новый торрент. Чтобы начать докачку новой серии, пользователям необходимо сделать следующее:
    (1) остановить скачивание,
    (2) удалить старый торрент у себя из клиента (старые серии удалять не надо),
    (3) скачать новый торрент и запустить его у себя в клиенте вместо старого, при этом указать клиенту путь в старую папку куда и должно происходить скачивание новых серий.
    Ваш клиент при этом должен произвести хеширование (проверку) старой папки (если не производит сам - помогите ему сделать это), и будет докачивать только те серии которых у вас ещё нет. Старые серии при этом не удаляются, а продолжают раздаваться!
    Eсли вы уже удалили старые серии, то предотвратить повторную закачку старых серий можно, отжав галочку в соответствующих местах при запуске нового торрента. По возможности, желательно не удалять старые серии как можно дольше чтобы релизёр не столько продолжал раздавать старые серии, а смог сконцентрироваться на новых.
    Общее
    Полное имя : F:\Секретные материалы (The X-Files) XviD\The.X-Files.s11e01.WEBRip.XviD.Rus.Eng.BaibaKo.tv.avi
    Формат : AVI
    Формат/Информация : Audio Video Interleave
    Размер файла : 499 Мбайт
    Продолжительность : 41 м. 23 с.
    Общий поток : 1684 Кбит/сек
    Библиотека кодирования : Boilsoft AVI tool build 30012/release

    Видео
    Идентификатор : 0
    Формат : MPEG-4 Visual
    Профиль формата : Advanced Simple@L5
    Настройки формата : BVOP2
    Параметр BVOP формата : 2
    Параметр QPel формата : Нет
    Параметр GMC формата : Без точки перехода
    Параметр матрицы формата : Default (H.263)
    Идентификатор кодека : XVID
    Идентификатор кодека/Подсказка : XviD
    Продолжительность : 41 м. 23 с.
    Битрейт : 1483 Кбит/сек
    Ширина : 720 пикселей
    Высота : 400 пикселей
    Соотношение сторон : 16:9
    Частота кадров : 23,976 (24000/1001) кадра/сек
    Цветовое пространство : YUV
    Субдискретизация насыщенности : 4:2:0
    Битовая глубина : 8 бит
    Тип развёртки : Прогрессивная
    Метод сжатия : С потерями
    Бит/(Пиксели*Кадры) : 0.215
    Размер потока : 439 Мбайт (88%)
    Библиотека кодирования : XviD 65

    Аудио
    Идентификатор : 1
    Формат : MPEG Audio
    Версия формата : Version 1
    Профиль формата : Layer 3
    Настройки формата : Joint stereo / MS Stereo
    Идентификатор кодека : 55
    Идентификатор кодека/Подсказка : MP3
    Продолжительность : 41 м. 23 с.
    Вид битрейта : Постоянный
    Битрейт : 192 Кбит/сек
    Каналы : 2 канала
    Частота : 48,0 КГц
    Метод сжатия : С потерями
    Задержка видео : 20 мс.
    Размер потока : 56,8 Мбайт (11%)
    Выравнивание : Разделение по промежуткам
    Продолжительность промежутка : 42 мс. (1,00 видеокадр)
    Время предзагрузки промежутка : 500 мс.
    Библиотека кодирования : LAME3.99.›ЛЬь§hАU1



    Скриншоты:
    скриншот   скриншот   скриншот   скриншот   скриншот   скриншот   скриншот  
    скриншот  

    Раздача ведётся путём добавления новых серий. Добавлена 10 серия (22.03.2018).Просьба перекачать торрент файл.

    pb.wtf



  • Скачать Секретные материалы через торрент http://pic1.kartinco.top/images/11/95rf3.jpg Скачать фильм Секретные материалы через торрент бесплантно в хорошем качестве qw.png Специальные агенты ФБР, Фокс Малдер и Дана Скалли, снова работают вместе, чтобы расследовать странные и необъяснимые дела, ... 9.5 10 14
    Info! Золотая раздача, скачанное не засчитывается.
    Торрент: Зарегистрирован [2018-03-22 12:57] · скачан: 79 раз
    Статус: √ проверено
    Размер: 4.88 GB
    Как cкачать? Как скачать Секретные материалы через торрент | qTorrent

    % Раздел Тема Автор DL S | L
    Зарубежные сериалы [ 5.41 GB ] Секретные материалы / The X-Files / Сезон: 11 / Серии: 1-10 из 10 [2018 WEB-DLRip] MVO [LostFilm] bober100 Скачать
    1 | 0
    Зарубежные сериалы [ 5.59 GB ] Секретные материалы / The X-Files / Сезон 11 / Серия 1-10 из 10 [2018 WEBRip] [MVO] [голоса ОРТ и RenTv] killermax2013 Скачать
    1 | 0
    Зарубежные сериалы [ 35.99 GB ] Секретные материалы / The X-Files / Сезон 11 / Серия 1-10 из 10 [2018 WEBRip 1080p] [MVO] [голоса ОРТ и RenTv] killermax2013 Скачать
    1 | 0
    Зарубежные сериалы [ 11.48 GB ] Секретные материалы / The X-Files / Сезон 11 / Серия 1-10 из 10 [2018 WEBRip 720p] [MVO] [голоса ОРТ и RenTv] killermax2013 Скачать
    1 | 0
    Зарубежные сериалы [ 12.71 GB ] Секретные материалы / The X-Files / Сезон: 11 / Серии: 1-10 из 10 [2018 WEBRip 720p] MVO [Profix Media] bober100 Скачать
    1 | 0
    Зарубежные сериалы [ 8.61 GB ] Секретные материалы / The X-Files / Сезон: 11 / Серии: 1-10 из 10 [2018 HDTVRip 720p] DVO [SunshineStudio] bober100 Скачать
    1 | 0
    Зарубежные сериалы [ 4.56 GB ] Секретные материалы / The X-Files / Сезон 11 / Серия 1-9 из 10 [2018 WEBRip] [MVO] killermax2013 Скачать
    1 | 0

    28-11-2019 20:33  

    Отключить всю рекламу на сайте

      Дорогой пользователь! Огромная просьба, поблагодарите релизера, оцените раздачу и оставьте свои комментарий, если Вы скачали Секретные материалы через торрент бесплатно! Внесите свою лепту в развитие PiratBit!
      Комментировать посты могут только пользователи прошедшие не сложную регистрацию
      Показать сообщения:    

      Секретные материалы через торрент
      Скачать бесплатно Секретные материалы
      Секретные материалы скачать торрент
      Секретные материалы смотреть онлайн
      Cкачать фильм Секретные материалы бесплатно
      Секретные материалы скачать торрент в хорошем качестве
      Секретные материалы смотреть онлайн бесплатно в хорошем качестве


      Вы не можете начинать темы
      Вы не можете отвечать на сообщения
      Вы не можете редактировать свои сообщения
      Вы не можете удалять свои сообщения
      Вы не можете голосовать в опросах
      Вы не можете прикреплять файлы к сообщениям
      Вы можете скачивать файлы