Ссылка на приватное зеркало всего за 1$. Внимание количество ограничено!!!

OK

1+1

iTunes

мы

OK

1

WEB-DLRip

Джокер

Пифагор

Ведьмак / The Witcher сериал

iTunes

ПШазам

ОК

Оно 2

iTunes

30
pack

Вам бонус

ВАЖНО

!!Акция!!

Alien_RageХит недели

RePack

Resident Evil 21

ИГРА 18+

pack

RePack

jed

RePack

fifa19

RePack

Assassins Creed: Odyssey

RePack

NEED FOR SPEED™ PAYBACK

4 сезон

9 сезон

Бесстыжие 9 сезон

Все сериалы

все сериалы на PB.wtf

RePack

FAR CRY 5
  

Дракон расправил крылья / The Dragon Unleashed (Рене Перез) [2019, Боевик, BDRip 720p] MVO ["Синема УС"] pb.wtf

Дракон расправил крылья через торрент pb.wtf

Размер: 3.92 GB | Добавлен: 1 год 1 мес. назад | Торрент скачан:94 раза
Скачать  

27-12-2018 05:07 Дракон расправил крылья Скачать торрент  

Дракон расправил крылья / The Dragon UnleashedГод выпуска: 2019
Страна: США
Жанр: Боевик
Продолжительность: 01:20:16
Перевод: Любительский (многоголосый) | "Синема УС"
Субтитры: отсутствуют

Режиссер: Рене Перез

rating

В ролях:

Чейз Блумквист, Джон Шнайдер, Эмили Свит, Чарли Глакин, Ева Хэмилтон, Тони Джексон, Джон Озуна

Описание:

Мастер боевых искусств, работающий наёмным убийцей на военных, начинает сомневаться в правильности своего жизненного выбора после очередного задания. Однако, уйти из теневой спецслужбы США не так просто. Для этого нужно побороть не только своих демонов, но и беспощадных бывших коллег.

Качество: BDRip 720p
Формат: MKV

Видео: h.264,6 551 kb/s, 1280x680
Аудио#1: Русский (AC3, 2 ch, 448 Кбит/с)
скриншот  скриншот  скриншот  

Общее
Уникальный идентификатор : 180276051856960077894644817570870829980 (0x879FE79752219E96A0F4D086D607A39C)
Полное имя : E:\торреннты\The.dragon.unleashed.2019.P.BDRip.72Op_KOSHARA.mkv
Формат : Matroska
Версия формата : Version 2
Размер файла : 3,92 Гбайт
Продолжительность : 1 ч. 20 м.
Режим общего битрейта : Переменный
Общий поток : 7000 Кбит/сек
Дата кодирования : UTC 2018-12-26 17:57:55
Программа кодирования : mkvmerge v8.3.0 ('Over the Horizon') 64bit
Библиотека кодирования : libebml v1.3.1 + libmatroska v1.4.2

Видео
Идентификатор : 1
Формат : AVC
Формат/Информация : Advanced Video Codec
Профиль формата : High@L4.1
Настройки формата : CABAC / 4 Ref Frames
Параметр CABAC формата : Да
Параметр RefFrames формата : 4 кадра
Идентификатор кодека : V_MPEG4/ISO/AVC
Продолжительность : 1 ч. 20 м.
Вид битрейта : Переменный
Битрейт : 6551 Кбит/сек
Максимальный битрейт : 7500 Кбит/сек
Ширина : 1280 пикселей
Высота : 680 пикселей
Соотношение сторон : 1,882
Режим частоты кадров : Постоянный
Частота кадров : 23,976 (24000/1001) кадра/сек
Стандарт вещания : Component
Цветовое пространство : YUV
Субдискретизация насыщенности : 4:2:0
Битовая глубина : 8 бит
Тип развёртки : Прогрессивная
Бит/(Пиксели*Кадры) : 0.307
Размер потока : 3,60 Гбайт (92%)
Default : Да
Forced : Нет
Цветовой диапазон : Limited
Основные цвета : BT.709
Характеристики трансфера : BT.709
Коэффициенты матрицы : BT.709

Аудио
Идентификатор : 2
Формат : AC-3
Формат/Информация : Audio Coding 3
Идентификатор кодека : A_AC3
Продолжительность : 1 ч. 20 м.
Вид битрейта : Постоянный
Битрейт : 448 Кбит/сек
Каналы : 2 канала
Расположение каналов : Front: L R
Частота : 48,0 КГц
Частота кадров : 31,250 кадров/сек (1536 SPF)
Битовая глубина : 16 бит
Метод сжатия : С потерями
Размер потока : 257 Мбайт (6%)
ServiceKind/String : Complete Main
Default : Да
Forced : Нет

pb.wtf



Скачать Дракон расправил крылья через торрент https://a.radikal.ru/a16/1812/70/7677e7671964.jpg Скачать фильм Дракон расправил крылья через торрент бесплантно в хорошем качестве Описание: Мастер боевых искусств, работающий наёмным убийцей на военных, начинает сомневаться в правильности своего жизненного выбора после ... 10 10 6
Торрент: Зарегистрирован [2018-12-27 05:07] · скачан: 94 раз
Статус: # сомнительно
Размер: 3.92 GB
Как cкачать? Как скачать Дракон расправил крылья через торрент | qTorrent

% Раздел Тема Автор DL S | L
T Фильмы (мультфильмы) cо спонсором показа (Новинки AVI/MKV) [ 1.37 GB ] Дракон расправил крылья / The Dragon Unleashed [2019 HDRip] MVO ["Синема УС"] bober100 Скачать
1 | 0

28-11-2019 20:33  

Отключить всю рекламу на сайте

27-12-2018 06:49 Дракон расправил крылья Скачать торрент  

фильм из будущего,до чего дошли технологияpb.wtf



27-12-2018 07:30 Дракон расправил крылья Скачать торрент  

Точно шедевр.Надеюсь хватит смелости посмотреть его! pb.wtf



27-12-2018 07:43 Дракон расправил крылья Скачать торрент  

я думаю такие фильмы снимают так-
чел. нашёл маску клёвую ну или сделал случайно, а потом такой- а давайте снимем фильм, такая клёвая маска фильм затащит pb.wtf



27-12-2018 19:31 Дракон расправил крылья Скачать торрент  

GuruBrain писал(а):

я думаю такие фильмы снимают так-
чел. нашёл маску клёвую ну или сделал случайно, а потом такой- а давайте снимем фильм, такая клёвая маска фильм затащит

мне его маска одну игру напоминает Darksiders 2 точь в точь только цвет другойpb.wtf



    Дорогой пользователь! Огромная просьба, поблагодарите релизера, оцените раздачу и оставьте свои комментарий, если Вы скачали Дракон расправил крылья через торрент бесплатно! Внесите свою лепту в развитие PiratBit!
    Комментировать посты могут только пользователи прошедшие не сложную регистрацию
    Показать сообщения:    

    Дракон расправил крылья через торрент
    Скачать бесплатно Дракон расправил крылья
    Дракон расправил крылья скачать торрент
    Дракон расправил крылья смотреть онлайн
    Cкачать фильм Дракон расправил крылья бесплатно
    Дракон расправил крылья скачать торрент в хорошем качестве
    Дракон расправил крылья смотреть онлайн бесплатно в хорошем качестве


    Вы не можете начинать темы
    Вы не можете отвечать на сообщения
    Вы не можете редактировать свои сообщения
    Вы не можете удалять свои сообщения
    Вы не можете голосовать в опросах
    Вы не можете прикреплять файлы к сообщениям
    Вы можете скачивать файлы