Ссылка на приватное зеркало нашего сайта всего за 1$. Внимание количество ограничено!!!

2 сезон

iTunes

1 сезон

1

2 сезон

2 сезон

iTunes

1 сезон

RePack

30

Ultimate

ВАЖНО

ИГРА 18+

pack

RePack

MK11
pack

Забери бонус

RePack

jed

!!Акция!!

Alien_Rage

RePack

fifa19

RePack

Assassins Creed: Odyssey

RePack

NEED FOR SPEED™ PAYBACK

4 сезон

9 сезон

Бесстыжие 9 сезон

Все сериалы

все сериалы на PB.wtf

RePack

FAR CRY 5
  

Леденящие душу приключения Сабрины / Chilling Adventures of Sabrina / Сезон: 1 / Серии: 1-10 из 10 + Бонус (Роб Шейденгланц, Мэгги Кили, Ли Толанд Кригер) [2018, Ужасы, фэнтези, триллер, WEBRip-HEVC 2160p] MVO [LostFilm] pb.wtf

Леденящие душу приключения Сабрины через торрент pb.wtf

Размер: 85.05 GB | Добавлен: 1 год 11 мес. назад | Торрент скачан:3 раза
Скачать  

27-12-2018 05:17 Леденящие душу приключения Сабрины Скачать торрент  

Леденящие душу приключения Сабрины / Chilling Adventures of Sabrina

Год выпуска: 2018
Страна:США
Жанр: Ужасы, фэнтези, триллер, драма, детектив
Продолжительность: ~ 01:00:00
Перевод: Профессиональный (многоголосый закадровый) | LostFilm
Субтитры: Русские (Full), Aнглийские (SDH)

Режиссёр: Роб Шейденгланц, Мэгги Кили, Ли Толанд Кригер

В ролях:

Кирнан Шипка, Росс Линч, Люси Дэвис, Мишель Гомес, Жасмин Сабино, Тати Габриэль, Ричард Койл, Миранда Отто, Бронсон Пиншо

Описание:

Обновленная версия приключений маленькой ведьмы Сабрины в виде тёмной истории взросления с элементами хоррора, оккультизма и ведьмовства. Сабрина пытается найти себя истинную между своими натурами смертной и ведьмы, при этом ей придётся противостоять злым силам, которые угрожают ей, её семье и всему миру людей.

rating

Качество: WEBRip-HEVC 2160p
Формат: MP4

Видео: HEVC HDR, ~ 20 Mбит/с, 3840x1744, 23.976 кадр/с
Аудио#1: Русский (AC3, 2 ch, 384 Кбит/с) / Профессиональный (многоголосый, закадровый) LostFilm
Аудио#2: Английский (AC3, 6 ch, 384 Кбит/с)
скриншот  скриншот  скриншот  скриншот  скриншот  

Video
ID : 1
Format : HEVC
Format/Info : High Efficiency Video Coding
Format profile : Main 10@L5.1@High
Codec ID : hev1
Codec ID/Info : High Efficiency Video Coding
Duration : 56 min 36 s
Bit rate : 18.3 Mb/s
Width : 3 840 pixels
Height : 1 744 pixels
Display aspect ratio : 2.2:1
Frame rate mode : Variable
Frame rate : 23.976 (24000/1001) FPS
Minimum frame rate : 23.564 FPS
Maximum frame rate : 24.390 FPS
Color space : YUV
Chroma subsampling : 4:2:0 (Type 2)
Bit depth : 10 bits
Bits/(Pixel*Frame) : 0.114
Stream size : 7.23 GiB (96%)
Writing library : x265 2.8+68-fa57fa584898:[Linux][GCC 7.3.0][64 bit] 10bit
Tagged date : UTC 2018-11-08 10:41:08
Color range : Limited
Color primaries : BT.2020
Transfer characteristics : SMPTE ST 2084
Matrix coefficients : BT.2020 non-constant
Mastering display color primar : R: x=0.680000 y=0.320000, G: x=0.265000 y=0.690000, B: x=0.150000 y=0.060000, White point:
x=0.312700 y=0.329000
Mastering display luminance : min: 0.0020 cd/m2, max: 1000.0000 cd/m2
Maximum Content Light Level : 1135 cd/m2
Maximum Frame-Average Light Le : 808 cd/m2

Audio #1
ID : 2
Format : AC-3
Format/Info : Audio Coding 3
Format settings, Endianness : Big
Codec ID : ac-3
Duration : 56 min 36 s
Bit rate mode : Constant
Bit rate : 384 kb/s
Channel(s) : 2 channels
Channel positions : Front: L R
Sampling rate : 48.0 kHz
Frame rate : 31.250 FPS (1536 SPF)
Bit depth : 16 bits
Compression mode : Lossy
Stream size : 155 MiB (2%)
Language : Russian
Service kind : Complete Main
Default : Yes
Alternate group : 1

Audio #2
ID : 3
Format : AC-3
Format/Info : Audio Coding 3
Format settings, Endianness : Big
Codec ID : ac-3
Duration : 56 min 36 s
Bit rate mode : Constant
Bit rate : 384 kb/s
Channel(s) : 6 channels
Channel positions : Front: L C R, Side: L R, LFE
Sampling rate : 48.0 kHz
Frame rate : 31.250 FPS (1536 SPF)
Bit depth : 16 bits
Compression mode : Lossy
Stream size : 155 MiB (2%)
Language : English
Service kind : Complete Main
Default : No
Alternate group : 1

Text #1
ID : 4
Format : Timed Text
Muxing mode : sbtl
Codec ID : tx3g
Duration : 55 min 22 s
Bit rate mode : Variable
Bit rate : 99 b/s
Stream size : 40.4 KiB (0%)
Language : Russian
Default : Yes
Forced : No
Alternate group : 3

Text #2
ID : 5
Format : Timed Text
Muxing mode : sbtl
Codec ID : tx3g
Duration : 56 min 24 s
Bit rate mode : Variable
Bit rate : 79 b/s
Stream size : 32.6 KiB (0%)
Language : English
Default : No
Forced : No
Alternate group : 3

pb.wtf



Скачать Леденящие душу приключения Сабрины через торрент http://i96.fastpic.ru/big/2018/1029/4a/3853a909b32fb533f1fdda0b00553e4a.png Скачать фильм Леденящие душу приключения Сабрины через торрент бесплантно в хорошем качестве Описание: Обновленная приключений маленькой ведьмы Сабрины в виде тёмной истории взросления с элементами хоррора, оккультизма и ... 10 10 2
Info! Золотая раздача, скачанное не засчитывается.
Торрент: Зарегистрирован [2018-12-27 05:17] · скачан: 3 раз
Статус: √ проверено
Размер: 85.05 GB
Как cкачать? Как скачать Леденящие душу приключения Сабрины через торрент | qTorrent

% Раздел Тема Автор DL S | L
Зарубежные сериалы [ 8.83 GB ] Леденящие душу Сабрины / Chilling Adventures of Sabrina / Сезон: 1 / Серии: 1-10 из 10 + бонус [2018 WEB-DLRip] [MVO] killermax2013 Скачать
1 | 0
Зарубежные сериалы [ 18.33 GB ] Леденящие душу Сабрины / Chilling Adventures of Sabrina / Сезон: 1 / Серии 1-10 из 10 + бонус [2018 WEB-DL 1080p] [MVO] killermax2013 Скачать
1 | 0
Зарубежные сериалы [ 7.74 GB ] Леденящие душу Сабрины / Chilling Adventures of Sabrina / Сезон: 1 / Серии 1-10 из 10 + бонус [2018 WEB-DLRip] [MVO] killermax2013 Скачать
1 | 0
Зарубежные сериалы [ 18.26 GB ] Леденящие душу Сабрины / Chilling Adventures of Sabrina / Сезон: 1 / Серии 1-10 из 10 + бонус [2018 WEB-DL 1080p] [MVO] killermax2013 Скачать
1 | 0
Зарубежные сериалы [ 18.23 GB ] Леденящие душу Сабрины / Chilling Adventures of Sabrina / Сезон: 1 / Серии 1-10 из 10 + бонус [2018 WEB-DL 1080p] [MVO] killermax2013 Скачать
1 | 0

28-11-2019 20:33  

Отключить всю рекламу на сайте

27-12-2018 08:40 Леденящие душу приключения Сабрины Скачать торрент  

Там же вроде бы и рождественскую серию озвучили...pb.wtf



    Дорогой пользователь! Огромная просьба, поблагодарите релизера, оцените раздачу и оставьте свои комментарий, если Вы скачали Леденящие душу приключения Сабрины через торрент бесплатно! Внесите свою лепту в развитие PiratBit!
    Комментировать посты могут только пользователи прошедшие не сложную регистрацию
    Показать сообщения:    

    Леденящие душу приключения Сабрины через торрент
    Скачать бесплатно Леденящие душу приключения Сабрины
    Леденящие душу приключения Сабрины скачать торрент
    Леденящие душу приключения Сабрины смотреть онлайн
    Cкачать фильм Леденящие душу приключения Сабрины бесплатно
    Леденящие душу приключения Сабрины скачать торрент в хорошем качестве
    Леденящие душу приключения Сабрины смотреть онлайн бесплатно в хорошем качестве


    Вы не можете начинать темы
    Вы не можете отвечать на сообщения
    Вы не можете редактировать свои сообщения
    Вы не можете удалять свои сообщения
    Вы не можете голосовать в опросах
    Вы не можете прикреплять файлы к сообщениям
    Вы можете скачивать файлы