Всегда рабочее зеркало без VPN и Proxy просто перед .vidak.icu напиши любое слово или цифру, Пример http://6vs3.vidak.icu

MVO

2 сезон

1 сезон

1

1 сезон

iTunes

2 сезон

13

1 сезон

Распродажа

pack

Рекомендуем

Пиратка

30

ВАЖНО

RePack

MK11

RePack

jed

RePack

fifa19

RePack

RDR2

RePack

NEED FOR SPEED™ PAYBACK

Кинопоиск HD

6 сезон

 Острые козырьки 6 сезон

Все сериалы

все сериалы на PB.wtf

RePack

FAR CRY 5

Anonymous, нам критически не хватает 5601 руб. на оплату серверов и переферии за Апрель, помоги нам пожалуйста, вся надежда только на тебя. В благодарность мы отключим тебе всю рекламу на сайте!

×
  
Magnet ссылка

Страна приливов / Tidelands / Сезон 1 / Серии 1-8 (8) (Стефен Ирвин, Ли МакГрат) [2018, фэнтези, драма, криминал, WEB-DL 1080p] [MVO] (FocusStudio) pb.wtf

Страна приливов через торрент pb.wtf

Размер: 13.79 GB | Добавлен: 3 года 4 мес. назад | Торрент скачан:29 раз
Смотреть онлайн Страна приливов | Скачать    Ребята, помогите собрать деньги на оплату серверов!!!

27-12-2018 11:21 Страна приливов Скачать торрент  


Страна приливов / Tidelands
Год выпуска • 2018
Страна • Австралия
Жанр • фэнтези, драма, криминал
Продолжительность • ~00:44:00
Перевод
    • Профессиональный (многоголосый) "FocusX" (aka FocusStudio)

Создатель • Стефен Ирвин, Ли МакГрат

В ролях • Шарлотта Бест, Дастин Клер, Маттиас Инвуд, Аарон Якубенко, Мадлен Мэдден, Питер О’Брайэн, Эльза Патаки и др.
Описание • Бывшая преступница возвращается домой в маленькую деревеньку Орфелин Бэй. Спокойной жизни не суждено состояться: вскоре неподалеку всплывет тело местного рыбака, а героиня столкнется с интересным феноменом — орудующей в прибрежной зоне группой таинственных человекоамфибий.

rating

Качество: WEB-DL 1080p
Формат: MKV
Видео: MPEG-4 AVC, ~ 4600 Кбит/с, 1920х1080
Аудио 1: Русский (AC3, 6 ch, 640 Кбит/с)
Аудио 2: Английский (AC3, 6 ch, 640 Кбит/с)
Субтитры: нет
скриншот  скриншот  скриншот  
General
Unique ID : 337483031472776189542414902425709126733 (0xFDE4DE1B44FFB9DBB437BAE81EAF244D)
Complete name : E:\Tidelands.S01.WEB-DL.1080p.FocusX\Tidelands.S01E01.WEB-DL.1080p.FocusX.mkv
Format : Matroska
Format version : Version 4 / Version 2
File size : 1.73 GiB
Duration : 42 min 4 s
Overall bit rate mode : Variable
Overall bit rate : 5 881 kb/s
Movie name : Tidelands 1x01 @ FocusX
Encoded date : UTC 2018-12-23 14:11:45
Writing application : mkvmerge v29.0.0 ('Like It Or Not') 64-bit
Writing library : libebml v1.3.6 + libmatroska v1.4.9

Video
ID : 1
Format : AVC
Format/Info : Advanced Video Codec
Format profile : Main@L4
Format settings : CABAC / 3 Ref Frames
Format settings, CABAC : Yes
Format settings, RefFrames : 3 frames
Codec ID : V_MPEG4/ISO/AVC
Duration : 42 min 4 s
Bit rate mode : Variable
Bit rate : 4 640 kb/s
Maximum bit rate : 6 960 kb/s
Width : 1 920 pixels
Height : 1 080 pixels
Display aspect ratio : 16:9
Frame rate mode : Constant
Frame rate : 25.000 FPS
Color space : YUV
Chroma subsampling : 4:2:0
Bit depth : 8 bits
Scan type : Progressive
Bits/(Pixel*Frame) : 0.090
Stream size : 1.32 GiB (76%)
Writing library : x264 core 148 r2715 7e75228
Encoding settings : cabac=1 / ref=3 / deblock=1:0:0 / analyse=0x1:0x111 / me=umh / subme=10 / psy=1 / psy_rd=1.00:0.00 / mixed_ref=1 / me_range=24 / chroma_me=1 / trellis=2 / 8x8dct=0 / cqm=0 / deadzone=21,11 / fast_pskip=1 / chroma_qp_offset=-2 / threads=8 / lookahead_threads=1 / sliced_threads=0 / nr=0 / decimate=1 / interlaced=0 / bluray_compat=0 / stitchable=1 / constrained_intra=0 / bframes=2 / b_pyramid=0 / b_adapt=2 / b_bias=0 / direct=3 / weightb=1 / open_gop=0 / weightp=2 / keyint=50 / keyint_min=26 / scenecut=0 / intra_refresh=0 / rc_lookahead=50 / rc=2pass / mbtree=1 / bitrate=4640 / ratetol=1.0 / qcomp=0.50 / qpmin=6 / qpmax=51 / qpstep=4 / cplxblur=20.0 / qblur=0.5 / vbv_maxrate=6960 / vbv_bufsize=9280 / nal_hrd=vbr / filler=0 / ip_ratio=1.40 / aq=1:1.00
Default : Yes
Forced : No

Audio #1
ID : 2
Format : AC-3
Format/Info : Audio Coding 3
Format settings, Endianness : Big
Codec ID : A_AC3
Duration : 42 min 4 s
Bit rate mode : Constant
Bit rate : 640 kb/s
Channel(s) : 6 channels
Channel positions : Front: L C R, Side: L R, LFE
Sampling rate : 48.0 kHz
Frame rate : 31.250 FPS (1536 SPF)
Bit depth : 16 bits
Compression mode : Lossy
Stream size : 193 MiB (11%)
Title : MVO FocusX
Language : Russian
Service kind : Complete Main
Default : Yes
Forced : No

Audio #2
ID : 3
Format : AC-3
Format/Info : Audio Coding 3
Format settings, Endianness : Big
Codec ID : A_AC3
Duration : 42 min 4 s
Bit rate mode : Constant
Bit rate : 640 kb/s
Channel(s) : 6 channels
Channel positions : Front: L C R, Side: L R, LFE
Sampling rate : 48.0 kHz
Frame rate : 31.250 FPS (1536 SPF)
Bit depth : 16 bits
Compression mode : Lossy
Stream size : 193 MiB (11%)
Language : English
Service kind : Complete Main
Default : No
Forced : No
pb.wtf



Скачать Страна приливов через торрент http://b.radikal.ru/b01/1812/1e/627781e124c2.jpg Скачать, смотреть онлайн Страна приливов бесплантно в хорошем качестве Описание • Бывшая преступница возвращается домой в маленькую деревеньку Орфелин Бэй. Спокойной жизни не суждено состояться: вскоре ... 5 10 1
Торрент: Зарегистрирован [2018-12-27 11:21] · скачан: 29 раз
Статус: √ проверено
Размер: 13.79 GB
Как cкачать? Как скачать Страна приливов через торрент | UTorrent

% Раздел Тема Автор DL S | L
Зарубежные сериалы [ 4.15 GB ] Страна приливов / Tidelands / Сезон 1 / Серии 1-8 [2018 WEBRip] [MVO] killermax2013 Скачать
1 | 0
Зарубежные сериалы [ 15.1 GB ] Страна приливов / Tidelands / Сезон 1 / Серии 1-8 [2018 WEB-DL 1080p] [MVO] killermax2013 Скачать
1 | 0
Зарубежные сериалы [ 3.2 GB ] Страна приливов / Tidelands / Сезон 1 / Серии 1-8 [2018 WEBRip] [MVO] killermax2013 Скачать
1 | 0
Зарубежные сериалы [ 14.84 GB ] Страна приливов / Tidelands / Сезон 1 / Серии 1-8 [2018 WEBRip 1080p] [MVO] killermax2013 Скачать
1 | 0
Зарубежные сериалы [ 12.59 GB ] Страна приливов / Tidelands / Сезон 1 / Серии 1-8 [2018 WEBRip 1080p] [MVO] killermax2013 Скачать
1 | 0
Зарубежные сериалы [ 12.29 GB ] Страна приливов / Tidelands / Сезон 1 / Серии 1-8 [2018 WEBRip 1080p] [Sub Rus] killermax2013 Скачать
1 | 0

28-11-2019 20:33  

Отключить всю рекламу на сайте

    Дорогой пользователь! Огромная просьба, поблагодарите релизера, оцените раздачу и оставьте свои комментарий, если Вы скачали Страна приливов через торрент бесплатно!
    Комментировать посты могут только пользователи прошедшие не сложную регистрацию
    Показать сообщения:    

    Страна приливов через торрент
    Скачать бесплатно Страна приливов
    Страна приливов скачать торрент
    Страна приливов смотреть онлайн
    Cкачать фильм Страна приливов бесплатно
    Страна приливов скачать торрент в хорошем качестве
    Страна приливов смотреть онлайн бесплатно в хорошем качестве


    Вы не можете начинать темы
    Вы не можете отвечать на сообщения
    Вы не можете редактировать свои сообщения
    Вы не можете удалять свои сообщения
    Вы не можете голосовать в опросах
    Вы не можете прикреплять файлы к сообщениям
    Вы можете скачивать файлы