Ссылка на приватное зеркало всего за 1$. Внимание количество ограничено!!!

OK

1+1

iTunes

мы

OK

1

WEB-DLRip

Джокер

Пифагор

Ведьмак / The Witcher сериал

iTunes

ПШазам

ОК

Оно 2

iTunes

30
pack

Вам бонус

ВАЖНО

!!Акция!!

Alien_RageХит недели

RePack

Resident Evil 21

ИГРА 18+

pack

RePack

jed

RePack

fifa19

RePack

Assassins Creed: Odyssey

RePack

NEED FOR SPEED™ PAYBACK

4 сезон

9 сезон

Бесстыжие 9 сезон

Все сериалы

все сериалы на PB.wtf

RePack

FAR CRY 5
  

Вскрытие / The Harrowing (Джон Кейес) [2018, Триллер, WEB-DL 720p] MVO ["Синема УС"] pb.wtf

Вскрытие через торрент pb.wtf

Размер: 4.17 GB | Добавлен: 1 год назад | Торрент скачан:50 раз
Скачать  

27-12-2018 13:19 Вскрытие Скачать торрент  

Вскрытие / The HarrowingГод выпуска: 2018
Страна: США
Жанр: Триллер
Продолжительность: 01:53:25
Перевод: Любительский (многоголосый) | "Синема УС"
Субтитры: отсутствуют

Режиссер: Джон Кейес

rating

В ролях:

Мэттью Томпкинс, Арнольд Вослу, Майкл Айронсайд, Эрианн Мартин, Дэймон Карни, Хейден Твиди, Эрин Мари Гаррет, Джон Валпоул, Моргана Шоу, Майкл Крэбтри

Описание:

После того, как его лучшего друга убили в ходе чудовищного ритуала, детектив отправляется в больницу под прикрытием в надежде добраться до правды. Очень скоро он начинает понимать, что всё не так, как кажется, что ад - реален, а демоны уже вышли на охоту.

Качество: WEB-DL 720p
Формат: MKV

Видео: h.264,4 872 kb/s, 1280x528
Аудио#1: Русский, (AC3, 2 ch, 384 Кбит/с)
скриншот  скриншот  скриншот  

Общее
Уникальный идентификатор : 239949081760759025285590249586318255426 (0xB484831D84112BBFB48BE7AC88462542)
Полное имя : E:\торреннты\The.Harrowing.2017.P.WEB-DL.72Op_KOSHARA.mkv
Формат : Matroska
Версия формата : Version 2
Размер файла : 4,17 Гбайт
Продолжительность : 1 ч. 53 м.
Режим общего битрейта : Переменный
Общий поток : 5257 Кбит/сек
Дата кодирования : UTC 2018-12-27 07:10:50
Программа кодирования : mkvmerge v8.3.0 ('Over the Horizon') 64bit
Библиотека кодирования : libebml v1.3.1 + libmatroska v1.4.2

Видео
Идентификатор : 1
Формат : AVC
Формат/Информация : Advanced Video Codec
Профиль формата : High@L4.1
Настройки формата : CABAC / 4 Ref Frames
Параметр CABAC формата : Да
Параметр RefFrames формата : 4 кадра
Идентификатор кодека : V_MPEG4/ISO/AVC
Продолжительность : 1 ч. 53 м.
Вид битрейта : Переменный
Битрейт : 4872 Кбит/сек
Максимальный битрейт : 5500 Кбит/сек
Ширина : 1280 пикселей
Высота : 528 пикселей
Соотношение сторон : 2,40:1
Режим частоты кадров : Постоянный
Частота кадров : 23,976 (24000/1001) кадра/сек
Стандарт вещания : Component
Цветовое пространство : YUV
Субдискретизация насыщенности : 4:2:0
Битовая глубина : 8 бит
Тип развёртки : Прогрессивная
Бит/(Пиксели*Кадры) : 0.294
Размер потока : 3,78 Гбайт (91%)
Default : Да
Forced : Нет
Цветовой диапазон : Limited
Основные цвета : BT.709
Характеристики трансфера : BT.709
Коэффициенты матрицы : BT.709

Аудио
Идентификатор : 2
Формат : AC-3
Формат/Информация : Audio Coding 3
Идентификатор кодека : A_AC3
Продолжительность : 1 ч. 53 м.
Вид битрейта : Постоянный
Битрейт : 384 Кбит/сек
Каналы : 2 канала
Расположение каналов : Front: L R
Частота : 48,0 КГц
Частота кадров : 31,250 кадров/сек (1536 SPF)
Битовая глубина : 16 бит
Метод сжатия : С потерями
Размер потока : 312 Мбайт (7%)
ServiceKind/String : Complete Main
Default : Да
Forced : Нет

pb.wtf



Скачать Вскрытие через торрент https://d.radikal.ru/d13/1812/4d/1b772c20729f.jpg Скачать фильм Вскрытие через торрент бесплантно в хорошем качестве Описание: После того, как его лучшего друга убили в ходе чудовищного ритуала, детектив отправляется в больницу под прикрытием в надежде ... 10 10 3
Торрент: Зарегистрирован [2018-12-27 13:19] · скачан: 50 раз
Статус: T временная
Размер: 4.17 GB
Как cкачать? Как скачать Вскрытие через торрент | qTorrent

% Раздел Тема Автор DL S | L
T Фильмы (мультфильмы) cо спонсором показа (Новинки AVI/MKV) [ 1.46 GB ] Вскрытие / The Harrowing [2018 WEB-DLRip] MVO ["Синема УС"] bober100 Скачать
1 | 0

28-11-2019 20:33  

Отключить всю рекламу на сайте

    Дорогой пользователь! Огромная просьба, поблагодарите релизера, оцените раздачу и оставьте свои комментарий, если Вы скачали Вскрытие через торрент бесплатно! Внесите свою лепту в развитие PiratBit!
    Комментировать посты могут только пользователи прошедшие не сложную регистрацию
    Показать сообщения:    

    Вскрытие через торрент
    Скачать бесплатно Вскрытие
    Вскрытие скачать торрент
    Вскрытие смотреть онлайн
    Cкачать фильм Вскрытие бесплатно
    Вскрытие скачать торрент в хорошем качестве
    Вскрытие смотреть онлайн бесплатно в хорошем качестве


    Вы не можете начинать темы
    Вы не можете отвечать на сообщения
    Вы не можете редактировать свои сообщения
    Вы не можете удалять свои сообщения
    Вы не можете голосовать в опросах
    Вы не можете прикреплять файлы к сообщениям
    Вы можете скачивать файлы