новый адрес
Ссылка на приватное зеркало всего за 1$. Внимание количество ограничено!!!

iTunes

1+1

iTunes

мы

WEB-DL

1

iTunes

Чернобыль

iTunes

Ральф против интернета

Лицензия

ПШазам

Лицензия

Оно 2

Лицензия

30
pack

Вам бонус

ВАЖНО

!!Акция!!

Alien_RageХит недели

RePack

Resident Evil 21

ИГРА 18+

pack

RePack

jed

!!Акция!!

Alien_Rage

RePack

fifa19

RePack

Assassins Creed: Odyssey

RePack

NEED FOR SPEED™ PAYBACK

3 сезон

9 сезон

Бесстыжие 9 сезон

Все сериалы

все сериалы на PB.wtf

RePack

FAR CRY 5
Ребята, катастрофически не хватает 1900р. для оплаты серверов за Октябрь (всвязи с блокировками трафик упал в 3 раза), 1-2р., выручайте.
  

Голая Джульетта / Juliet, Naked (Джесси Перец) [2018 г., драма, мелодрама, комедия, музыка, HDRip, Профессиональный многоголосый закадровый "iTunes"] pb.wtf

Голая Джульетта через торрент pb.wtf

Размер: 712 MB | Добавлен: 11 мес. назад | Торрент скачан:39 раз
Скачать  

27-12-2018 18:38 Голая Джульетта Скачать торрент  

Голая Джульетта / Juliet Naked
Год выпуска: 2018
Страна: Великобритания, США / Apatow Productions, Bona Fide Productions
Жанр: драма, мелодрама, комедия, музыка
Продолжительность: 01:37:00
Перевод: Профессиональный многоголосый закадровый (iTunes)
Субтитры: Русские форсированные-вшитые

Режиссер: Джесси Перец

rating

В ролях: Крис О’Дауд, Роуз Бирн, Kitty O'Beirne, Александра Клэтворти, Lily Brazier, Ko Iwagami, Лили Ньюмарк, Денис Гоф, Филип Дэвис, Итан Хоук

Описание: История о девушке по имени Энни, у которой неожиданно вспыхивает роман с бывшей музыкальной звездой Такером Кроу. Проблема в том, что она погрязла в многолетних и многострадальных отношениях с Дунканом - парнем, который в свою очередь преклоняется перед Кроу.

Качество: HDRip
Формат: AVI
Видео кодек: XviD
Аудио кодек: MP3
Видео: 624x264 (2.36:1), 24.000 fps, XviD build 50 ~878 kbps avg, 0.22 bit/pixel
Аудио: 48 kHz, MPEG Layer 3, 2 ch, ~128.00 kbps avg
скриншот   скриншот   скриншот   скриншот   скриншот   скриншот   скриншот   скриншот  

Общее
Полное имя : F:\ФИЛЬМЫ\Голая Джульетта.2018.HDRip.avi
Формат : AVI
Формат/Информация : Audio Video Interleave
Размер файла : 712 Мбайт
Продолжительность : 1 ч. 37 м.
Общий поток : 1020 Кбит/сек
Программа кодирования : VirtualDubMod 1.5.10.3 | www.virtualdub-fr.org || (build 2550/release)
Библиотека кодирования : VirtualDubMod build 2550/release

Видео
Идентификатор : 0
Формат : MPEG-4 Visual
Профиль формата : Advanced Simple@L5
Настройки формата : BVOP1
Параметр BVOP формата : 1
Параметр QPel формата : Нет
Параметр GMC формата : Без точки перехода
Параметр матрицы формата : Default (MPEG)
Идентификатор кодека : XVID
Идентификатор кодека/Подсказка : XviD
Продолжительность : 1 ч. 37 м.
Битрейт : 883 Кбит/сек
Ширина : 640 пикселей
Высота : 272 пикселя
Соотношение сторон : 2,35:1
Частота кадров : 23,976 (24000/1001) кадра/сек
Цветовое пространство : YUV
Субдискретизация насыщенности : 4:2:0
Битовая глубина : 8 бит
Тип развёртки : Прогрессивная
Метод сжатия : С потерями
Бит/(Пиксели*Кадры) : 0.212
Размер потока : 616 Мбайт (87%)
Библиотека кодирования : XviD 1.2.1 (UTC 2008-12-04)

Аудио
Идентификатор : 1
Формат : MPEG Audio
Версия формата : Version 1
Профиль формата : Layer 3
Настройки формата : Joint stereo
Идентификатор кодека : 55
Идентификатор кодека/Подсказка : MP3
Продолжительность : 1 ч. 37 м.
Вид битрейта : Постоянный
Битрейт : 128 Кбит/сек
Каналы : 2 канала
Частота : 48,0 КГц
Частота кадров : 41,667 кадра/сек (1152 SPF)
Метод сжатия : С потерями
Размер потока : 89,3 Мбайт (13%)
Выравнивание : Соединение по промежуткам
Продолжительность промежутка : 42 мс. (1,00 видеокадр)
Время предзагрузки промежутка : 504 мс.
Библиотека кодирования : LAME3.99r
Настройки программы : -m j -V 4 -q 2 -lowpass 17 -b 128

pb.wtf



Скачать Голая Джульетта через торрент http://pic1.kartinco.top/images/12/an1dx.jpg Скачать фильм Голая Джульетта через торрент бесплантно в хорошем качестве Описание: История о девушке по имени Энни, у которой неожиданно вспыхивает роман с бывшей музыкальной звездой Такером Кроу. Проблема в том, ... 5 10 1
Торрент: Зарегистрирован [2018-12-27 18:38] · скачан: 39 раз
Статус: √ проверено
Размер: 712 MB
Как cкачать? Как скачать Голая Джульетта через торрент | qTorrent

% Раздел Тема Автор DL S | L
Фильмы 2018 [DVDrip, WEB-DLRip, HDrip] (DUB, MVO) [ 1.42 GB ] Голая Джульетта / Juliet Naked [2018 музыка BDRip] MVO [ / Tunes] Twi7ter Скачать
7 | 0
Фильмы 2018 [DVDrip, WEB-DLRip, HDrip] (DUB, MVO) [ 1.79 GB ] Голая Джульетта / Juliet Naked [2018 музыка BDRip-AVC] MVO [Tunes] bober100 Скачать
2 | 0
Фильмы [HD 720p, 1080p] (Хороший звук DUB, MVO) [ 3.62 GB ] Голая Джульетта / Juliet Naked [2018 музыка BDRip 720p] MVO [Tunes] bober100 Скачать
2 | 0
Фильмы 2018 [DVDrip, WEB-DLRip, HDrip] (DUB, MVO) [ 1.46 GB ] Голая Джульетта / Juliet Naked [2018 музыка BDRip] MVO [Tunes] bober100 Скачать
1 | 0
Фильмы [HD 720p, 1080p] (Хороший звук DUB, MVO) [ 7 GB ] Голая Джульетта / Juliet Naked [2018 музыка BDRip 1080p] MVO [Tunes] bober100 Скачать
1 | 0

28-11-2019 20:33  

Отключить всю рекламу на сайте

    Дорогой пользователь! Огромная просьба, поблагодарите релизера, оцените раздачу и оставьте свои комментарий, если Вы скачали Голая Джульетта через торрент бесплатно! Внесите свою лепту в развитие PiratBit!
    Комментировать посты могут только пользователи прошедшие не сложную регистрацию
    Показать сообщения:    

    Голая Джульетта через торрент
    Скачать бесплатно Голая Джульетта
    Голая Джульетта скачать торрент
    Голая Джульетта смотреть онлайн
    Cкачать фильм Голая Джульетта бесплатно
    Голая Джульетта скачать торрент в хорошем качестве
    Голая Джульетта смотреть онлайн бесплатно в хорошем качестве


    Вы не можете начинать темы
    Вы не можете отвечать на сообщения
    Вы не можете редактировать свои сообщения
    Вы не можете удалять свои сообщения
    Вы не можете голосовать в опросах
    Вы не можете прикреплять файлы к сообщениям
    Вы можете скачивать файлы