Ссылка на приватное зеркало нашего сайта всего за 1$. Внимание количество ограничено!!!

2 сезон

iTunes

1 сезон

1

2 сезон

2 сезон

iTunes

1 сезон

RePack

30

Ultimate

ВАЖНО

ИГРА 18+

pack

RePack

MK11
pack

Забери бонус

RePack

jed

!!Акция!!

Alien_Rage

RePack

fifa19

RePack

Assassins Creed: Odyssey

RePack

NEED FOR SPEED™ PAYBACK

4 сезон

9 сезон

Бесстыжие 9 сезон

Все сериалы

все сериалы на PB.wtf

RePack

FAR CRY 5
  

1983 / 1983 / Сезон: 1 / Серии: 1-8 из 8 (Ольга Хайдас, Агнешка Смочиньска, Касия Адамик) [2018, триллер, драма, криминал, WEB-DL 720p] MVO [Jaskier] pb.wtf

1983 через торрент pb.wtf

Размер: 5.89 GB | Добавлен: 1 год 11 мес. назад | Торрент скачан:17 раз
Скачать  

28-12-2018 05:00 1983 Скачать торрент  

1983 / 1983

Год выпуска: 2018
Страна: США
Жанр: триллер, драма, криминал
Продолжительность: ~ 00:58:00
Перевод: Профессиональный (многоголосый закадровый) | Jaskier
Субтитры: отсутствуют
Режиссёр: Ольга Хайдас, Агнешка Смочиньска, Касия Адамик

В ролях:

Эва Блащик, Анджей Хыра, Агнешка Глиньска, Мацей Мусял, Михалина Ольшанска, Эдита Ольшувка, Катажина Скаржанка, Хелена Суецка

Описание:

Действие сериала разворачивается в 2003 году — спустя 20 лет после разрушительной террористической атаки, задавшей курс на освобождение Польши от советского режима. Студент-юрист и опальный полицейский следователь случайно раскрывают заговор, благодаря которому в Польше существовали репрессии и железный занавес. Их находка может стать поводом для новой революции, но Влacть предержащие сделают что угодно, чтобы оставить эти данные в секрете.

rating

Качество: WEB-DL 720p
Формат: MKV

Видео: X264, ~ 1400 kbps, 1280x720 (16:9), 23.976 fps
Аудио: AC3, 48,0 КГц, 6 ch, 640 kbps - RUS


Реклама: аудио, два раза в начале и в конце по 12 секунд
Общее
Уникальный идентификатор                 : 231040767430388324447994010730959376185 (0xADD0D54F026E3853B1D7F1E8C7DE8F39)
Полное имя                               : V:\arhiv83 Season 1 (WEB-DL l 720p l JASKiER)83.S01E01.720p.Jaskier.mkv
Формат                                   : Matroska
Версия формата                           : Version 2
Размер файла                             : 814 Мбайт
Продолжительность                        : 58 м.
Режим общего битрейта                    : Переменный
Общий поток                              : 1961 Кбит/сек
Дата кодирования                         : UTC 2018-12-27 16:38:10
Программа кодирования                    : mkvmerge v7.8.0 ('River Man') 32bit built on Apr  3 2015 12:11:22
Библиотека кодирования                   : libebml v1.3.1 + libmatroska v1.4.2

Видео
Идентификатор                            : 1
Формат                                   : AVC
Формат/Информация                        : Advanced Video Codec
Профиль формата                          : Main@L3.1
Параметр CABAC формата                   : Да
Параметр ReFrames формата                : 3 кадра
Идентификатор кодека                     : V_MPEG4/ISO/AVC
Продолжительность                        : 58 м.
Вид битрейта                             : Переменный
Битрейт                                  : 1282 Кбит/сек
Номинальный битрейт                      : 1400 Кбит/сек
Максимальный битрейт                     : 2100 Кбит/сек
Ширина                                   : 1280 пикселей
Высота                                   : 720 пикселей
Соотношение сторон                       : 16:9
Режим частоты кадров                     : Постоянный
Частота кадров                           : 25,000 кадров/сек
Цветовое пространство                    : YUV
Субдискретизация насыщенности            : 4:2:0
Битовая глубина                          : 8 бит
Тип развёртки                            : Прогрессивная
Бит/(Пиксели*Кадры)                      : 0.056
Размер потока                            : 532 Мбайт (65%)
Библиотека кодирования                   : x264 core 148 r2715 7e75228
Настройки программы                      : cabac=1 / ref=3 / deblock=1:0:0 / analyse=0x1:0x111 / me=umh / subme=10 / psy=1 / psy_rd=1.00:0.00 / mixed_ref=1 / me_range=24 / chroma_me=1 / trellis=2 / 8x8dct=0 / cqm=0 / deadzone=21,11 / fast_pskip=1 / chroma_qp_offset=-2 / threads=8 / lookahead_threads=1 / sliced_threads=0 / nr=0 / decimate=1 / interlaced=0 / bluray_compat=0 / stitchable=1 / constrained_intra=0 / bframes=2 / b_pyramid=0 / b_adapt=2 / b_bias=0 / direct=3 / weightb=1 / open_gop=0 / weightp=2 / keyint=50 / keyint_min=26 / scenecut=0 / intra_refresh=0 / rc_lookahead=50 / rc=2pass / mbtree=1 / bitrate=1400 / ratetol=1.0 / qcomp=0.50 / qpmin=6 / qpmax=51 / qpstep=4 / cplxblur=20.0 / qblur=0.5 / vbv_maxrate=2100 / vbv_bufsize=2800 / nal_hrd=vbr / filler=0 / ip_ratio=1.40 / aq=1:1.00
Default                                  : Да
Forced                                   : Нет

Аудио
Идентификатор                            : 2
Формат                                   : AC-3
Формат/Информация                        : Audio Coding 3
Расширение режима                        : CM (complete main)
Параметр Endianness формата              : Big
Идентификатор кодека                     : A_AC3
Продолжительность                        : 58 м.
Вид битрейта                             : Постоянный
Битрейт                                  : 640 Кбит/сек
Каналы                                   : 6 каналов
Расположение каналов                     : Front: L C R, Side: L R, LFE
Частота                                  : 48,0 КГц
Частота кадров                           : 31,250 кадров/сек (1536 spf)
Метод сжатия                             : С потерями
Размер потока                            : 266 Мбайт (33%)
Заголовок                                : Jaskier
Язык                                     : Russian
Default                                  : Да
Forced                                   : Нет
скриншот  скриншот  скриншот  
Когда раздача ведётся путём добавления новых серий, при каждом добавлении создётся новый торрент. Чтобы начать докачку новой серии, пользователям необходимо сделать следующее:
(1) остановить скачивание,
(2) удалить старый торрент у себя из клиента (старые серии удалять не надо),
(3) скачать новый торрент и запустить его у себя в клиенте вместо старого, при этом указать клиенту путь в старую папку, куда и должно происходить скачивание новых серий.
Ваш клиент при этом должен произвести хеширование (проверку) старой папки (если не производит сам - помогите ему сделать это), и будет докачивать только те серии, которых у вас ещё нет. Старые серии при этом не удаляются, а продолжают раздаваться!
Eсли вы уже удалили старые серии, то предотвратить повторную закачку старых серий можно, отжав галочку в соответсвующих местах при запуске нового торрента. По возможности, желательно не удалять старые серии как можно дольше, чтобы релизёр не столько продолжал раздавать старые серии, а смог сконцентрироваться на новых.
pb.wtf



Скачать 1983 через торрент https://i106.fastpic.ru/big/2018/1227/9e/b83052bd02ed42be460b8f0cd1ea3c9e.png Скачать фильм 1983 через торрент бесплантно в хорошем качестве Описание: Действие сериала разворачивается в 2003 году — спустя 20 лет после разрушительной террористической атаки, задавшей курс на ... 10 10 3
Торрент: Зарегистрирован [2018-12-28 05:00] · скачан: 17 раз
Статус: √ проверено
Размер: 5.89 GB
Как cкачать? Как скачать 1983 через торрент | qTorrent

% Раздел Тема Автор DL S | L
Зарубежные сериалы [ 4.84 GB ] 1983 / 1983 / Сезон: 1 / Серии: 1-8 из 8 [2018 WEB-DLRip] MVO [Jaskier] bober100 Скачать
1 | 0
Зарубежные сериалы [ 11.07 GB ] 1983 / 1983 / Сезон: 1 / Серии: 1-8 из 8 [2018 WEB-DL 1080p] DUB [Пифагор] bober100 Скачать
1 | 0
Зарубежные сериалы [ 8.73 GB ] 1983 / Сезон: 1 / Серии 1-8 из 8 [2018 WEB-DLRip 720p] + 2x[MVO] killermax2013 Скачать
1 | 0

28-11-2019 20:33  

Отключить всю рекламу на сайте

    Дорогой пользователь! Огромная просьба, поблагодарите релизера, оцените раздачу и оставьте свои комментарий, если Вы скачали 1983 через торрент бесплатно! Внесите свою лепту в развитие PiratBit!
    Комментировать посты могут только пользователи прошедшие не сложную регистрацию
    Показать сообщения:    

    1983 через торрент
    Скачать бесплатно 1983
    1983 скачать торрент
    1983 смотреть онлайн
    Cкачать фильм 1983 бесплатно
    1983 скачать торрент в хорошем качестве
    1983 смотреть онлайн бесплатно в хорошем качестве


    Вы не можете начинать темы
    Вы не можете отвечать на сообщения
    Вы не можете редактировать свои сообщения
    Вы не можете удалять свои сообщения
    Вы не можете голосовать в опросах
    Вы не можете прикреплять файлы к сообщениям
    Вы можете скачивать файлы