Ссылка на приватное зеркало нашего сайта всего за 1$. Внимание количество ограничено!!!

2 сезон

iTunes

1 сезон

1

2 сезон

2 сезон

iTunes

1 сезон

RePack

30

Новинка

ВАЖНО

ИГРА 18+

pack

RePack

MK11
pack

Забери бонус

RePack

jed

!!Акция!!

Alien_Rage

RePack

fifa19

RePack

Assassins Creed: Odyssey

RePack

NEED FOR SPEED™ PAYBACK

4 сезон

9 сезон

Бесстыжие 9 сезон

Все сериалы

все сериалы на PB.wtf

RePack

FAR CRY 5
  

Вражда: Бетт и Джоан / Feud / Сезон: 1 / Серии 1-4 из 8 (Райан Мерфи / Ryan Murphy) [2017, Драма, WEBRip] [MVO] (Jaskier) pb.wtf

Вражда: Бетт и Джоан через торрент pb.wtf

Размер: 2.59 GB | Добавлен: 3 года 7 мес. назад | Торрент скачан:14 раз
Скачать  

10-03-2017 18:02 Вражда: Бетт и Джоан Скачать торрент  

Вражда: Бетт и Джоан | Feud
Год выпуска: 2017
Страна: США
Жанр: драма
Продолжительность: ~ 00:59:00
Перевод: Профессиональный (многоголосый закадровый) | Jaskier

Режиссёр: Райан Мерфи

В ролях: Джессика Лэнг, Сьюзен Сарандон, Кэти Бейтс, Кэтри Зета-Джонс, Доминик Бёрджесс, Джуди Дэвис, Джеки Хоффман, Альфред Молина, Сара Полсон, Стэнли Туччи, Элисон Райт и др.

Описание: Джоан Кроуфорд и Бетт Дэвис всегда были известными исполнительницами, которых сейчас знают многие любители кинематографа. Эти девушки обладали невероятным талантом, ведь именно благодаря ему актрисам доставались большие роли. Кто бы мог подумать, что на их конфликте будет построен новый совершенно оригинальный проект. Роберт Олдрич - автор психологического триллера "Что случилось с Бэби Джейн?" сталкивает меж собой эти две сильные и интересные личности. В новом триллере главные героини пытаются сделать все возможное, чтобы изжить свою соперницу с этого света. Чего уж только не придумают ради рейтингов режиссеры!



Качество: WEBRip
Формат: AVI
Видео: XviD, ~ 1400 kbps, 720x400 (16:9), 23,976 fps
Аудио 1: MP3, 48,0 КГц, 2 ch, 128 kbps - Rus
Аудио 2: MP3, 48,0 КГц, 2 ch, 128 kbps - Eng
Субтитры: отсутствуют
Переведено и озвучено: студией Jaskier
Общее
Полное имя                               : D:\загрузки\FEUD (Season 01) Jaskier\FEUD.S01E01.WEBRip.Rus.Eng.Jaskier.avi
Формат                                   : AVI
Формат/Информация                        : Audio Video Interleave
Размер файла                             : 701 Мбайт
Продолжительность                        : 59 м. 13 с.
Общий поток                              : 1654 Кбит/сек
Программа кодирования                    : VirtualDubMod 1.5.10.3 | www.virtualdub-fr.org || (build 2550/release)
Библиотека кодирования                   : VirtualDubMod build 2550/release
Видео
Идентификатор                            : 0
Формат                                   : MPEG-4 Visual
Профиль формата                          : Advanced Simple@L5
Параметр BVOP формата                    : 1
Параметр QPel формата                    : Нет
Параметр GMC формата                     : Без точки перехода
Параметр матрицы формата                 : Default (MPEG)
Идентификатор кодека                     : XVID
Идентификатор кодека/Подсказка           : XviD
Продолжительность                        : 59 м. 13 с.
Битрейт                                  : 1384 Кбит/сек
Ширина                                   : 720 пикселей
Высота                                   : 400 пикселей
Соотношение сторон                       : 16:9
Частота кадров                           : 23,976 (24000/1001) кадра/сек
Цветовое пространство                    : YUV
Субдискретизация насыщенности            : 4:2:0
Битовая глубина                          : 8 бит
Тип развёртки                            : Прогрессивная
Метод сжатия                             : С потерями
Бит/(Пиксели*Кадры)                      : 0.200
Размер потока                            : 586 Мбайт (84%)
Библиотека кодирования                   : XviD 73
Аудио #1
Идентификатор                            : 1
Формат                                   : MPEG Audio
Версия формата                           : Version 1
Профиль формата                          : Layer 3
Режим                                    : Joint stereo
Расширение режима                        : MS Stereo
Идентификатор кодека                     : 55
Идентификатор кодека/Подсказка           : MP3
Продолжительность                        : 59 м. 13 с.
Вид битрейта                             : Постоянный
Битрейт                                  : 128 Кбит/сек
Каналы                                   : 2 канала
Частота                                  : 48,0 КГц
Метод сжатия                             : С потерями
Размер потока                            : 54,2 Мбайт (8%)
Выравнивание                             : Соединение по промежуткам
Продолжительность промежутка             : 42  мс. (1,00 видеокадр)
Время предзагрузки промежутка            : 504  мс.
Аудио #2
Идентификатор                            : 2
Формат                                   : MPEG Audio
Версия формата                           : Version 1
Профиль формата                          : Layer 3
Режим                                    : Joint stereo
Расширение режима                        : MS Stereo
Идентификатор кодека                     : 55
Идентификатор кодека/Подсказка           : MP3
Продолжительность                        : 59 м. 13 с.
Вид битрейта                             : Постоянный
Битрейт                                  : 128 Кбит/сек
Каналы                                   : 2 канала
Частота                                  : 48,0 КГц
Метод сжатия                             : С потерями
Размер потока                            : 54,2 Мбайт (8%)
Выравнивание                             : Соединение по промежуткам
Продолжительность промежутка             : 42  мс. (1,00 видеокадр)
Время предзагрузки промежутка            : 504  мс.
Когда раздача ведётся путём добавления новых серий, при каждом добавлении создётся новый торрент. Чтобы начать докачку новой серии, пользователям необходимо сделать следующее:
(1) остановить скачивание,
(2) удалить старый торрент у себя из клиента (старые серии удалять не надо),
(3) скачать новый торрент и запустить его у себя в клиенте вместо старого, при этом указать клиенту путь в старую папку, куда и должно происходить скачивание новых серий.
Ваш клиент при этом должен произвести хеширование (проверку) старой папки (если не производит сам - помогите ему сделать это), и будет докачивать только те серии, которых у вас ещё нет. Старые серии при этом не удаляются, а продолжают раздаваться!
Eсли вы уже удалили старые серии, то предотвратить повторную закачку старых серий можно, отжав галочку в соответсвующих местах при запуске нового торрента. По возможности, желательно не удалять старые серии как можно дольше, чтобы релизёр не столько продолжал раздавать старые серии, а смог сконцентрироваться на новых.
pb.wtf



Скачать Вражда: Бетт и Джоан через торрент https://i89.fastpic.ru/big/2017/0309/a3/7e1c2b04f048df024fac19280e8baea3.png Скачать фильм Вражда: Бетт и Джоан через торрент бесплантно в хорошем качестве Описание: Джоан Кроуфорд и Бетт Дэвис всегда были известными исполнительницами, которых сейчас знают многие любители кинематографа. Эти ... 10 10 1
Торрент: Зарегистрирован [2017-04-01 08:23] · скачан: 14 раз
Статус: √ проверено
Размер: 2.59 GB
Как cкачать? Как скачать Вражда: Бетт и Джоан через торрент | qTorrent



Последний раз редактировалось: killermax2013 (2017-04-01 08:23), всего редактировалось 1 раз

28-11-2019 20:33  

Отключить всю рекламу на сайте

17-03-2017 12:27 Вражда: Бетт и Джоан Скачать торрент  

+2pb.wtf



01-04-2017 08:24 Вражда: Бетт и Джоан Скачать торрент  

+3-4pb.wtf



    Дорогой пользователь! Огромная просьба, поблагодарите релизера, оцените раздачу и оставьте свои комментарий, если Вы скачали Вражда: Бетт и Джоан через торрент бесплатно! Внесите свою лепту в развитие PiratBit!
    Комментировать посты могут только пользователи прошедшие не сложную регистрацию
    Показать сообщения:    

    Вражда: Бетт и Джоан через торрент
    Скачать бесплатно Вражда: Бетт и Джоан
    Вражда: Бетт и Джоан скачать торрент
    Вражда: Бетт и Джоан смотреть онлайн
    Cкачать фильм Вражда: Бетт и Джоан бесплатно
    Вражда: Бетт и Джоан скачать торрент в хорошем качестве
    Вражда: Бетт и Джоан смотреть онлайн бесплатно в хорошем качестве


    Вы не можете начинать темы
    Вы не можете отвечать на сообщения
    Вы не можете редактировать свои сообщения
    Вы не можете удалять свои сообщения
    Вы не можете голосовать в опросах
    Вы не можете прикреплять файлы к сообщениям
    Вы можете скачивать файлы