>

5.6

iTunes

7.4

MVO

5.7

MVO

1

7.4

1 сезон

6.8

iTunes

7.2

1 сезон

13

6.7

1 сезон

8.3

RePack

30

Deluxe

pack

9.9

Лицензия

ВАЖНО

ИГРА 18+

pack

7.3

RePack

MK11

7.7

RePack

jed

7.8

RePack

fifa19

8.5

RePack

RDR2

RePack

NEED FOR SPEED™ PAYBACK

4 сезон

9 сезон

Бесстыжие 9 сезон

Все сериалы

все сериалы на PB.wtf

RePack

FAR CRY 5

Anonymous, доброй ночи, мы катастрофически не успеваем собрать деньги на оплату серверов, помогите нам пожалуйста 5,10,15р., для нас важна любая помощь . В качестве благодарности мы отключим Вам всю рекламу на сайте (укажите свой ник в строку Ваше имя)!

×
  
Magnet ссылка

Здравствуйте, дети! (Марк Донской) [1962, драма, DVDRip от AVP Studio] pb.wtf

Здравствуйте, дети! через торрент pb.wtf

Размер: 745 MB | Добавлен: 2 года 8 мес. назад | Торрент скачан:6 раз
Смотреть онлайн Здравствуйте, дети! | Скачать    Ребята, помогите собрать деньги на оплату серверов!!!

28-12-2018 09:24 Здравствуйте, дети! Скачать торрент  

Здравствуйте, дети!
Страна: СССР
Производство: к/ст им. Горького

Жанр: драма
Год выпуска: 1962
Продолжительность: 01:15:13

Перевод: Не требуется
Cубтитры: нет
Оригинальная аудиодорожка: русский

Режиссер: Марк Донской

В ролях:
Людмила Скопина, Борис Виноградов, Леонора Янковская, Л. Галстян, Эдуард Изотов, Светлана Алексеева, Лев Золотухин, Яков Кисидо, Гегам Воскян, Ральф Паркер, Эрвин Кнаусмюллер, Владимир Салов, Хайнц Браун, Наташа Кисидо, Юра Захаров, Алексей Жарков, Владимир Евстафьев, Гоги Твалавадзе, Михаил Янушкевич, Миша Лапшин, Тито Ромалио (II), Лолик Ромалио, Наташа Епифанова, Наташа Зенякина, Елена Носик, Этьен Грилье, Гердт Гампэ, Валерий Ашуров, Лёня Смоляр, Саша Луценко, Ольга Хачапуридзе, Витя Пасхин, Володя Сун Пу, Павел Чухрай, Михаил Биц, Ира Дымкова, Света Корзина, Володя Бялик, Валерий Гатаев...
Об актёрах подробней

Описание:
Рассказ о детях, приехавших из разных стран мира, в пионерский лагерь на берег Черного моря. В эту мирную жизнь врывается беда - лучевая болезнь японской девочки Инеко. Врач ей сказал, что она обязательно выздоровее, если сложит из бумаги 1000 журавликов. Ребята переживают ее болезнь, как собственную боль, и клянутся не допустить новой Хиросимы.

Источник: DVD5 R5
Качество видео: DVDRip
Формат видео: AVI

Видео: 672х496 (4:3), 25 fps, XviD ~ 1184 kbps avg, 0.142 bit/pixel
Аудио: 48 kHz, Dolby Digital AC3 2.0, 192 kbps

Раздача от:
Общее
Полное имя : Zdravstvuyte,deti!1962.DVDRip_[New-team]_by_AVP_Studio.avi
Формат : AVI
Формат/Информация : Audio Video Interleave
Размер файла : 745 Мбайт
Продолжительность : 1 ч. 15 м.
Общий поток : 1386 Кбит/сек
Программа кодирования : VirtualDubMod 1.5.10.3 | www.virtualdub-fr.org || (build 2550/release)
Библиотека кодирования : VirtualDubMod build 2550/release

Видео
Идентификатор : 0
Формат : MPEG-4 Visual
Профиль формата : Advanced Simple@L5
Настройки формата : BVOP1 / Custom Matrix
Параметр BVOP формата : 1
Параметр QPel формата : Нет
Параметр GMC формата : Без точки перехода
Параметр матрицы формата : Выборочная
Идентификатор кодека : XVID
Идентификатор кодека/Подсказка : XviD
Продолжительность : 1 ч. 15 м.
Битрейт : 1184 Кбит/сек
Ширина : 672 пикселя
Высота : 496 пикселей
Соотношение сторон : 4:3
Частота кадров : 25,000 кадров/сек
Цветовое пространство : YUV
Субдискретизация насыщенности : 4:2:0
Битовая глубина : 8 бит
Тип развёртки : Прогрессивная
Метод сжатия : С потерями
Бит/(Пиксели*Кадры) : 0.142
Размер потока : 637 Мбайт (85%)
Библиотека кодирования : XviD 73

Аудио
Идентификатор : 1
Формат : AC-3
Формат/Информация : Audio Coding 3
Коммерческое название : Dolby Digital
Идентификатор кодека : 2000
Продолжительность : 1 ч. 15 м.
Вид битрейта : Постоянный
Битрейт : 192 Кбит/сек
Каналы : 2 канала
Channel layout : L R
Частота : 48,0 КГц
Частота кадров : 31,250 кадров/сек (1536 SPF)
Битовая глубина : 16 бит
Метод сжатия : С потерями
Размер потока : 103 Мбайт (14%)
Выравнивание : Разделение по промежуткам
Продолжительность промежутка : 40 мс. (1,00 видеокадр)
Время предзагрузки промежутка : 500 мс
pb.wtf



Скачать Здравствуйте, дети! через торрент http://picplus.ru/img/1812/28/e2ef1499.png Скачать, смотреть онлайн Здравствуйте, дети! бесплантно в хорошем качестве Описание:Рассказ о детях, приехавших из разных стран мира, в пионерский лагерь на берег Черного моря. В эту мирную жизнь врывается беда - ... 5 10 1
Info! Золотая раздача, скачанное не засчитывается.
Торрент: Зарегистрирован [2018-12-28 09:24] · скачан: 6 раз
Статус: √ проверено
Размер: 745 MB
Как cкачать? Как скачать Здравствуйте, дети! через торрент | UTorrent

% Раздел Тема Автор DL S | L
Кино СССР [ 1.09 GB ] Здравствуйте дети! [1962 DVDRip-AVC от AVP Studio] AVP Studio Скачать
1 | 0

28-11-2019 20:33  

Отключить всю рекламу на сайте

    Дорогой пользователь! Огромная просьба, поблагодарите релизера, оцените раздачу и оставьте свои комментарий, если Вы скачали Здравствуйте, дети! через торрент бесплатно!
    Комментировать посты могут только пользователи прошедшие не сложную регистрацию
    Показать сообщения:    

    Здравствуйте, дети! через торрент
    Скачать бесплатно Здравствуйте, дети!
    Здравствуйте, дети! скачать торрент
    Здравствуйте, дети! смотреть онлайн
    Cкачать фильм Здравствуйте, дети! бесплатно
    Здравствуйте, дети! скачать торрент в хорошем качестве
    Здравствуйте, дети! смотреть онлайн бесплатно в хорошем качестве


    Вы не можете начинать темы
    Вы не можете отвечать на сообщения
    Вы не можете редактировать свои сообщения
    Вы не можете удалять свои сообщения
    Вы не можете голосовать в опросах
    Вы не можете прикреплять файлы к сообщениям
    Вы можете скачивать файлы