Ссылка на приватное зеркало всего за 1$. Внимание количество ограничено!!!

OK

1+1

iTunes

мы

OK

1

WEB-DLRip

Джокер

Пифагор

Ведьмак / The Witcher сериал

iTunes

ПШазам

ОК

Оно 2

iTunes

30
pack

Вам бонус

ВАЖНО

!!Акция!!

Alien_RageХит недели

RePack

Resident Evil 21

ИГРА 18+

pack

RePack

jed

RePack

fifa19

RePack

Assassins Creed: Odyssey

RePack

NEED FOR SPEED™ PAYBACK

4 сезон

9 сезон

Бесстыжие 9 сезон

Все сериалы

все сериалы на PB.wtf

RePack

FAR CRY 5
  

Большая афера в маленьком городе / Un paese quasi perfetto (Массимо Гаудиозо) [2016, Комедия, BDRip 720p] MVO [Официальный звук] pb.wtf

Большая афера в маленьком городе через торрент pb.wtf

Размер: 4.78 GB | Добавлен: 1 год назад | Торрент скачан:55 раз
Скачать  

28-12-2018 11:15 Большая афера в маленьком городе Скачать торрент  

Большая афера в маленьком городе / Un paese quasi perfetto Год выпуска: 2016
Страна: Италия
Жанр: Комедия
Продолжительность: 01:34:51
Перевод: Профессиональный многоголосый | Официальный звук
Субтитры: отсутствуют

Режиссер: Массимо Гаудиозо

rating

В ролях:

Фабио Воло, Сильвио Орландо, Нандо Паоне, Карло Буччироссо, Мириам Леоне, Джеа Мартире, Мария Пайато, Франческо Де Вито

Описание:

Для жителей маленького городка, затерянного в Доломитовых Альпах, открытие фабрики - надежда на спасение от тотальной безработицы. Но чтобы фабрика прошла аттестацию, в ее штате должен быть врач. Волей случая оказавшийся в этой глуши эстетический хирург из Милана оказывается единственным кандидатом... Сможет ли рафинированный доктор, привыкший к роскошной жизни и клиентам совсем другого уровня, вынести отсутствие вайфая и суши-баров? Местным придется проявить изобретательность, доказав гостю - он оказался в лучшем месте на земле.

Качество: BDRip 720p
Формат: MKV

Видео: h.264, 6 763 kb/s, 1280x536
Аудио#1: Русский (AC3, 2 ch, 448 Кбит/с)
скриншот  скриншот  скриншот  

Общее
Уникальный идентификатор : 230028231893839468567889847509999868368 (0xAD0DD373CF840764996A3452EBCAD9D0)
Полное имя : E:\торреннты\Un.paesequasiperfetto.2016.Pof.BDRip.72Op.mkv
Формат : Matroska
Версия формата : Version 2
Размер файла : 4,78 Гбайт
Продолжительность : 1 ч. 34 м.
Режим общего битрейта : Переменный
Общий поток : 7213 Кбит/сек
Дата кодирования : UTC 2018-12-28 09:31:36
Программа кодирования : mkvmerge v8.3.0 ('Over the Horizon') 64bit
Библиотека кодирования : libebml v1.3.1 + libmatroska v1.4.2

Видео
Идентификатор : 1
Формат : AVC
Формат/Информация : Advanced Video Codec
Профиль формата : High@L4.1
Настройки формата : CABAC / 4 Ref Frames
Параметр CABAC формата : Да
Параметр RefFrames формата : 4 кадра
Идентификатор кодека : V_MPEG4/ISO/AVC
Продолжительность : 1 ч. 34 м.
Вид битрейта : Переменный
Битрейт : 6763 Кбит/сек
Максимальный битрейт : 7400 Кбит/сек
Ширина : 1280 пикселей
Высота : 536 пикселей
Соотношение сторон : 2,40:1
Режим частоты кадров : Постоянный
Частота кадров : 23,976 (24000/1001) кадра/сек
Стандарт вещания : Component
Цветовое пространство : YUV
Субдискретизация насыщенности : 4:2:0
Битовая глубина : 8 бит
Тип развёртки : Прогрессивная
Бит/(Пиксели*Кадры) : 0.403
Размер потока : 4,39 Гбайт (92%)
Default : Да
Forced : Нет
Цветовой диапазон : Limited
Основные цвета : BT.709
Характеристики трансфера : BT.709
Коэффициенты матрицы : BT.709

Аудио
Идентификатор : 2
Формат : AC-3
Формат/Информация : Audio Coding 3
Идентификатор кодека : A_AC3
Продолжительность : 1 ч. 34 м.
Вид битрейта : Постоянный
Битрейт : 448 Кбит/сек
Каналы : 2 канала
Расположение каналов : Front: L R
Частота : 48,0 КГц
Частота кадров : 31,250 кадров/сек (1536 SPF)
Битовая глубина : 16 бит
Метод сжатия : С потерями
Размер потока : 304 Мбайт (6%)
ServiceKind/String : Complete Main
Default : Да
Forced : Нет

pb.wtf



Скачать Большая афера в маленьком городе через торрент https://d.radikal.ru/d07/1812/32/68f7b111e77f.jpg Скачать фильм Большая афера в маленьком городе через торрент бесплантно в хорошем качестве Описание: Для жителей маленького городка, затерянного в Доломитовых Альпах, открытие фабрики - надежда на спасение от тотальной ... 10 10 4
Торрент: Зарегистрирован [2018-12-28 11:15] · скачан: 55 раз
Статус: # сомнительно
Размер: 4.78 GB
Как cкачать? Как скачать Большая афера в маленьком городе через торрент | qTorrent

% Раздел Тема Автор DL S | L
T Фильмы (мультфильмы) cо спонсором показа (Новинки AVI/MKV) [ 1.37 GB ] Большая афера в маленьком городе / Un paese quasi perfetto [2016 HDRip] MVO [Официальный звук] bober100 Скачать
2 | 0

28-11-2019 20:33  

Отключить всю рекламу на сайте

    Дорогой пользователь! Огромная просьба, поблагодарите релизера, оцените раздачу и оставьте свои комментарий, если Вы скачали Большая афера в маленьком городе через торрент бесплатно! Внесите свою лепту в развитие PiratBit!
    Комментировать посты могут только пользователи прошедшие не сложную регистрацию
    Показать сообщения:    

    Большая афера в маленьком городе через торрент
    Скачать бесплатно Большая афера в маленьком городе
    Большая афера в маленьком городе скачать торрент
    Большая афера в маленьком городе смотреть онлайн
    Cкачать фильм Большая афера в маленьком городе бесплатно
    Большая афера в маленьком городе скачать торрент в хорошем качестве
    Большая афера в маленьком городе смотреть онлайн бесплатно в хорошем качестве


    Вы не можете начинать темы
    Вы не можете отвечать на сообщения
    Вы не можете редактировать свои сообщения
    Вы не можете удалять свои сообщения
    Вы не можете голосовать в опросах
    Вы не можете прикреплять файлы к сообщениям
    Вы можете скачивать файлы