Ссылка на приватное зеркало всего за 1$. Внимание количество ограничено!!!

OK

1+1

iTunes

мы

OK

1

WEB-DLRip

Джокер

Пифагор

Ведьмак / The Witcher сериал

iTunes

ПШазам

ОК

Оно 2

iTunes

30
pack

Вам бонус

ВАЖНО

!!Акция!!

Alien_RageХит недели

RePack

Resident Evil 21

ИГРА 18+

pack

RePack

jed

RePack

fifa19

RePack

Assassins Creed: Odyssey

RePack

NEED FOR SPEED™ PAYBACK

4 сезон

9 сезон

Бесстыжие 9 сезон

Все сериалы

все сериалы на PB.wtf

RePack

FAR CRY 5
  

Один день конца света / In un giorno la fine (Даниель Мисисчиа) [2017, ужасы, триллер, BDRip 1080p] MVO [Официальный звук] pb.wtf

Один день конца света через торрент pb.wtf

Размер: 9.35 GB | Добавлен: 1 год 1 мес. назад | Торрент скачан:68 раз
Скачать  

28-12-2018 11:31 Один день конца света Скачать торрент  

Один день конца света / In un giorno la fine Год выпуска: 2017
Страна: Италия
Жанр: ужасы, триллер
Продолжительность: 01:43:55
Перевод: Профессиональный многоголосый | Официальный звук
Субтитры: отсутствуют

Режиссер: Даниель Мисисчиа

rating

В ролях:

Алессандро Ройа, Каролина Крешентини, Клаудио Камилли, Эвридиче Аксэн, Бенедетта Чиматти, Бьянка Фриселли, Роберто Скотто Паглиара, Марко Манетти, Даниэле Ниси

Описание:

Клаудио Верона - молодой и циничный бизнесмен. Однажды он застревает в лифте перед важной встречей с клиентом. Вскоре, это раздражающее обстоятельство становится кошмаром наяву: в это время в городе распространился вирус, превращающий людей в опасных зомби. Отныне, лифт - самое безопасное место...

Качество: BDRip 1080p
Формат: MKV

Видео: h.264, 12.4 Mb/s, 1920x804
Аудио#1: Русский (AC3, 2 ch, 448 Кбит/с)
скриншот  скриншот  скриншот  

Общее
Уникальный идентификатор : 208537783860616625024801603069245218240 (0x9CE2EA8F2F63BF91AE4B0B854F395DC0)
Полное имя : E:\торреннты\The.End.2017.Pof.BDRip.1O8Op.mkv
Формат : Matroska
Версия формата : Version 2
Размер файла : 9,35 Гбайт
Продолжительность : 1 ч. 43 м.
Режим общего битрейта : Переменный
Общий поток : 12,9 Мбит/сек
Дата кодирования : UTC 2018-12-28 09:24:11
Программа кодирования : mkvmerge v8.3.0 ('Over the Horizon') 64bit
Библиотека кодирования : libebml v1.3.1 + libmatroska v1.4.2

Видео
Идентификатор : 2
Формат : AVC
Формат/Информация : Advanced Video Codec
Профиль формата : High@L4.1
Настройки формата : CABAC / 4 Ref Frames
Параметр CABAC формата : Да
Параметр RefFrames формата : 4 кадра
Идентификатор кодека : V_MPEG4/ISO/AVC
Продолжительность : 1 ч. 43 м.
Вид битрейта : Переменный
Битрейт : 12,4 Мбит/сек
Максимальный битрейт : 14,0 Мбит/сек
Ширина : 1920 пикселей
Высота : 804 пикселя
Соотношение сторон : 2,40:1
Режим частоты кадров : Постоянный
Частота кадров : 23,976 (24000/1001) кадра/сек
Стандарт вещания : Component
Цветовое пространство : YUV
Субдискретизация насыщенности : 4:2:0
Битовая глубина : 8 бит
Тип развёртки : Прогрессивная
Бит/(Пиксели*Кадры) : 0.329
Размер потока : 8,84 Гбайт (95%)
Default : Да
Forced : Нет
Цветовой диапазон : Limited
Основные цвета : BT.709
Характеристики трансфера : BT.709
Коэффициенты матрицы : BT.709

Аудио
Идентификатор : 1
Формат : AC-3
Формат/Информация : Audio Coding 3
Идентификатор кодека : A_AC3
Продолжительность : 1 ч. 43 м.
Вид битрейта : Постоянный
Битрейт : 448 Кбит/сек
Каналы : 2 канала
Расположение каналов : Front: L R
Частота : 48,0 КГц
Частота кадров : 31,250 кадров/сек (1536 SPF)
Битовая глубина : 16 бит
Метод сжатия : С потерями
Размер потока : 333 Мбайт (3%)
ServiceKind/String : Complete Main
Default : Да
Forced : Нет

pb.wtf



Скачать Один день конца света через торрент https://c.radikal.ru/c41/1812/5d/e73b6bb08023.jpg Скачать фильм Один день конца света через торрент бесплантно в хорошем качестве Описание: Клаудио Верона - молодой и циничный бизнесмен. Однажды он застревает в лифте перед важной встречей с клиентом. Вскоре, это ... 10 10 4
Торрент: Зарегистрирован [2018-12-28 11:31] · скачан: 68 раз
Статус: # сомнительно
Размер: 9.35 GB
Как cкачать? Как скачать Один день конца света через торрент | qTorrent

% Раздел Тема Автор DL S | L
# Фильмы (мультфильмы) cо спонсором показа (Новинки AVI/MKV) [ 5.2 GB ] Один день конца света / In un giorno la fine [2017 BDRip 720p] MVO [Официальный звук] bober100 Скачать
1 | 0
T Фильмы (мультфильмы) cо спонсором показа (Новинки AVI/MKV) [ 1.37 GB ] Один день конца света / In un giorno la fine [2017 HDRip] MVO [Официальный звук] bober100 Скачать
1 | 0

28-11-2019 20:33  

Отключить всю рекламу на сайте

    Дорогой пользователь! Огромная просьба, поблагодарите релизера, оцените раздачу и оставьте свои комментарий, если Вы скачали Один день конца света через торрент бесплатно! Внесите свою лепту в развитие PiratBit!
    Комментировать посты могут только пользователи прошедшие не сложную регистрацию
    Показать сообщения:    

    Один день конца света через торрент
    Скачать бесплатно Один день конца света
    Один день конца света скачать торрент
    Один день конца света смотреть онлайн
    Cкачать фильм Один день конца света бесплатно
    Один день конца света скачать торрент в хорошем качестве
    Один день конца света смотреть онлайн бесплатно в хорошем качестве


    Вы не можете начинать темы
    Вы не можете отвечать на сообщения
    Вы не можете редактировать свои сообщения
    Вы не можете удалять свои сообщения
    Вы не можете голосовать в опросах
    Вы не можете прикреплять файлы к сообщениям
    Вы можете скачивать файлы