Ссылка на приватное зеркало всего за 1$. Внимание количество ограничено!!!

OK

1+1

iTunes

мы

OK

1

WEB-DLRip

Джокер

Пифагор

Ведьмак / The Witcher сериал

iTunes

ПШазам

ОК

Оно 2

iTunes

30
pack

Вам бонус

ВАЖНО

!!Акция!!

Alien_RageХит недели

RePack

Resident Evil 21

ИГРА 18+

pack

RePack

jed

RePack

fifa19

RePack

Assassins Creed: Odyssey

RePack

NEED FOR SPEED™ PAYBACK

4 сезон

9 сезон

Бесстыжие 9 сезон

Все сериалы

все сериалы на PB.wtf

RePack

FAR CRY 5
  

Ярди / Yardie (Идрис Эльба) [2018, Криминал, BDRip 720p] MVO ["Синема УС"] pb.wtf

Ярди через торрент pb.wtf

Размер: 5.2 GB | Добавлен: 1 год назад | Торрент скачан:65 раз
Скачать  

28-12-2018 12:53 Ярди Скачать торрент  

Ярди / YardieГод выпуска: 2018
Страна: Великобритания
Жанр: Криминал
Продолжительность: 01:44:25
Перевод: Любительский (многоголосый) | "Синема УС"
Субтитры: отсутствуют

Режиссер: Идрис Эльба

rating

В ролях:

Антвейн Экклстон, Фрайзер Джеймс, Амл Амин, Район Маклин, Марк Смит, Шелдон Шеперд, Кристофер Дейли, Решавна Дуглас, Александра Ваз, Крис-Энн Флетчер

Описание:

Главный герой, родом с Ямайки, никак не может смириться со смертью старшего брата, которого убили 10 лет назад. Он едет в Лондон, где сходится с бывшей возлюбленной и впервые знакомится с дочкой. Когда герой решает начать новую жизнь, покончив с грязным бизнесом, судьба сталкивает его с убийцей брата, и тогда он вступает на путь мести, рискуя потерять всё, что ему дорого.

Качество: BDRip 720p
Формат: MKV

Видео: h.264, 6 672 kb/s, 1280x536
Аудио#1: Русский (AC3, 2 ch, 448 Кбит/с)
скриншот  скриншот  скриншот  

Общее
Уникальный идентификатор : 222816610826034854196265749514496346687 (0xA7A0EB15083516A3B13FB967C7198A3F)
Полное имя : E:\торреннты\Yardie.2018.P.BDRip.72Op_KOSHARA.mkv
Формат : Matroska
Версия формата : Version 2
Размер файла : 5,20 Гбайт
Продолжительность : 1 ч. 44 м.
Режим общего битрейта : Переменный
Общий поток : 7122 Кбит/сек
Дата кодирования : UTC 2018-12-25 12:18:19
Программа кодирования : mkvmerge v8.3.0 ('Over the Horizon') 64bit
Библиотека кодирования : libebml v1.3.1 + libmatroska v1.4.2

Видео
Идентификатор : 1
Формат : AVC
Формат/Информация : Advanced Video Codec
Профиль формата : High@L4.1
Настройки формата : CABAC / 4 Ref Frames
Параметр CABAC формата : Да
Параметр RefFrames формата : 4 кадра
Идентификатор кодека : V_MPEG4/ISO/AVC
Продолжительность : 1 ч. 44 м.
Вид битрейта : Переменный
Битрейт : 6672 Кбит/сек
Максимальный битрейт : 7500 Кбит/сек
Ширина : 1280 пикселей
Высота : 536 пикселей
Соотношение сторон : 2,40:1
Режим частоты кадров : Постоянный
Частота кадров : 23,976 (24000/1001) кадра/сек
Стандарт вещания : Component
Цветовое пространство : YUV
Субдискретизация насыщенности : 4:2:0
Битовая глубина : 8 бит
Тип развёртки : Прогрессивная
Бит/(Пиксели*Кадры) : 0.397
Размер потока : 4,76 Гбайт (92%)
Default : Да
Forced : Нет
Цветовой диапазон : Limited
Основные цвета : BT.709
Характеристики трансфера : BT.709
Коэффициенты матрицы : BT.709

Аудио
Идентификатор : 2
Формат : AC-3
Формат/Информация : Audio Coding 3
Идентификатор кодека : A_AC3
Продолжительность : 1 ч. 44 м.
Вид битрейта : Постоянный
Битрейт : 448 Кбит/сек
Каналы : 2 канала
Расположение каналов : Front: L R
Частота : 48,0 КГц
Частота кадров : 31,250 кадров/сек (1536 SPF)
Битовая глубина : 16 бит
Метод сжатия : С потерями
Размер потока : 335 Мбайт (6%)
ServiceKind/String : Complete Main
Default : Да
Forced : Нет

pb.wtf



Скачать Ярди через торрент https://c.radikal.ru/c11/1812/9f/2d43fc9b3abe.jpg Скачать фильм Ярди через торрент бесплантно в хорошем качестве Описание: Главный герой, родом с Ямайки, никак не может смириться со смертью старшего брата, которого убили 10 лет назад. Он едет в Лондон, ... 10 10 4
Торрент: Зарегистрирован [2018-12-28 12:53] · скачан: 65 раз
Статус: # сомнительно
Размер: 5.2 GB
Как cкачать? Как скачать Ярди через торрент | qTorrent

% Раздел Тема Автор DL S | L
T Фильмы (Blu-ray, BD-Remux, HDDVD) [ 20.97 GB ] Ярди / Yardie [2018 BDRemux 1080p] [DVO] killermax2013 Скачать
1 | 0
T Фильмы (мультфильмы) cо спонсором показа (Новинки AVI/MKV) [ 1.37 GB ] Ярди / Yardie [2018 HDRip] MVO ["Синема УС"] bober100 Скачать
3 | 0

28-11-2019 20:33  

Отключить всю рекламу на сайте

    Дорогой пользователь! Огромная просьба, поблагодарите релизера, оцените раздачу и оставьте свои комментарий, если Вы скачали Ярди через торрент бесплатно! Внесите свою лепту в развитие PiratBit!
    Комментировать посты могут только пользователи прошедшие не сложную регистрацию
    Показать сообщения:    

    Ярди через торрент
    Скачать бесплатно Ярди
    Ярди скачать торрент
    Ярди смотреть онлайн
    Cкачать фильм Ярди бесплатно
    Ярди скачать торрент в хорошем качестве
    Ярди смотреть онлайн бесплатно в хорошем качестве


    Вы не можете начинать темы
    Вы не можете отвечать на сообщения
    Вы не можете редактировать свои сообщения
    Вы не можете удалять свои сообщения
    Вы не можете голосовать в опросах
    Вы не можете прикреплять файлы к сообщениям
    Вы можете скачивать файлы