Ссылка на приватное зеркало нашего сайта всего за 1$. Внимание количество ограничено!!!

2 сезон

iTunes

1 сезон

1

2 сезон

2 сезон

iTunes

1 сезон

RePack

30

Новинка

ВАЖНО

ИГРА 18+

pack

RePack

MK11
pack

Забери бонус

RePack

jed

!!Акция!!

Alien_Rage

RePack

fifa19

RePack

Assassins Creed: Odyssey

RePack

NEED FOR SPEED™ PAYBACK

4 сезон

9 сезон

Бесстыжие 9 сезон

Все сериалы

все сериалы на PB.wtf

RePack

FAR CRY 5
  

Убийства по алфавиту / The ABC Murders / Сезон: 1 / Серии 1-3 из 3 (Алекс Габасси) [2018, Драма, криминал, детектив, HDTVRip 720p] [DVO] (KosharaSerials) pb.wtf

Убийства по алфавиту через торрент pb.wtf

Размер: 2.4 GB | Добавлен: 1 год 10 мес. назад | Торрент скачан:116 раз
Скачать  

28-12-2018 13:22 Убийства по алфавиту Скачать торрент  

Убийства по алфавиту / The ABC Murders
Информация о сериале

Год выпуска: 2018
Жанр: Драма, криминал, детектив
Страна: Великобритания
Продолжительность: 1 x ~ 00:50:00
Перевод: Любительский (двухголосый закадровый) KosharaSerials

Режиссер: Алекс Габасси

В ролях: Джон Малкович, Эндрю Бачан, Имон Фэррен, Фрейя Мавор, Ив Гордон, Аня Чалотра, Джек Фартинг

О фильме: В центре внимания сюжета оказывается главный персонаж, известный бельгийский сыщик, который в этот раз постарается разобраться в странной жестокой серии убийств, происходящей на железной дороге. Загадочный маньяк, называющий себя инициалами АВС, выбирает жертв так, чтобы их имена начинались на буквы в четком алфавитном порядке. К тому же после совершения преступления негодяй проводит пугающий ритуал, который вызывает огромные вопросы у любого свидетеля...

rating скриншот  


Файл
Кодек: x264 (AVC)
Качество: HDTVRip 720p
Видео: MPEG-4 AVC, 1481 Кбит/с, 1280x640
Звук: Русский / AC3 / 2 Ch / 192kbs
Звук: Английский / AC3 / 6 Ch / 384kbs
скриншот   скриншот   скриншот  
General
Unique ID : 88215049628756620195526349231036975987 (0x425D99BE77D6A33ED0DD6DCAC06E4B73)
Complete name : E:\The ABC Murders\Убийства по алфавиту_E01.mkv
Format : Matroska
Format version : Version 4 / Version 2
File size : 822 MiB
Duration : 55 min 49 s
Overall bit rate : 2 059 kb/s
Encoded date : UTC 2018-12-31 16:36:53
Writing application : mkvmerge v29.0.0 ('Like It Or Not') 64-bit
Writing library : libebml v1.3.6 + libmatroska v1.4.9

Video
ID : 1
Format : AVC
Format/Info : Advanced Video Codec
Format profile : High@L4.1
Format settings : CABAC / 5 Ref Frames
Format settings, CABAC : Yes
Format settings, RefFrames : 5 frames
Codec ID : V_MPEG4/ISO/AVC
Duration : 55 min 49 s
Bit rate : 1 481 kb/s
Width : 1 280 pixels
Height : 640 pixels
Display aspect ratio : 2.000
Frame rate mode : Constant
Frame rate : 25.000 FPS
Color space : YUV
Chroma subsampling : 4:2:0
Bit depth : 8 bits
Scan type : Progressive
Bits/(Pixel*Frame) : 0.072
Stream size : 591 MiB (72%)
Writing library : x264 core 157 r2935 545de2f
Encoding settings : cabac=1 / ref=5 / deblock=1:0:0 / analyse=0x3:0x113 / me=hex / subme=8 / psy=1 / psy_rd=1.00:0.00 / mixed_ref=1 / me_range=16 / chroma_me=1 / trellis=2 / 8x8dct=1 / cqm=0 / deadzone=21,11 / fast_pskip=1 / chroma_qp_offset=-2 / threads=12 / lookahead_threads=2 / sliced_threads=0 / nr=0 / decimate=1 / interlaced=0 / bluray_compat=0 / constrained_intra=0 / bframes=3 / b_pyramid=2 / b_adapt=1 / b_bias=0 / direct=3 / weightb=1 / open_gop=0 / weightp=2 / keyint=250 / keyint_min=25 / scenecut=40 / intra_refresh=0 / rc_lookahead=50 / rc=crf / mbtree=1 / crf=18.0 / qcomp=0.60 / qpmin=0 / qpmax=69 / qpstep=4 / ip_ratio=1.40 / aq=1:1.00
Language : English
Default : Yes
Forced : No
Color range : Limited
Matrix coefficients : BT.709

Audio #1
ID : 2
Format : AC-3
Format/Info : Audio Coding 3
Format settings, Endianness : Big
Codec ID : A_AC3
Duration : 55 min 49 s
Bit rate mode : Constant
Bit rate : 192 kb/s
Channel(s) : 2 channels
Channel positions : Front: L R
Sampling rate : 48.0 kHz
Frame rate : 31.250 FPS (1536 SPF)
Bit depth : 16 bits
Compression mode : Lossy
Stream size : 76.7 MiB (9%)
Language : Russian
Service kind : Complete Main
Default : Yes
Forced : No

Audio #2
ID : 3
Format : AC-3
Format/Info : Audio Coding 3
Format settings, Endianness : Big
Codec ID : A_AC3
Duration : 55 min 49 s
Bit rate mode : Constant
Bit rate : 384 kb/s
Channel(s) : 6 channels
Channel positions : Front: L C R, Side: L R, LFE
Sampling rate : 48.0 kHz
Frame rate : 31.250 FPS (1536 SPF)
Bit depth : 16 bits
Compression mode : Lossy
Stream size : 153 MiB (19%)
Language : English
Service kind : Complete Main
Default : No
Forced : No
Внимание! Раздача ведётся путём добавления новых серий; при каждом добавлении создаётся новый торрент. Чтобы начать докачку новой серии, пользователям необходимо сделать следующее:
(1) остановить скачивание,
(2) удалить старый торрент у себя из клиента (старые серии удалять не надо),
(3) скачать новый торрент и запустить его у себя в клиенте вместо старого, при этом указать клиенту путь в старую папку куда и должно происходить скачивание новых серий.
Ваш клиент при этом должен произвести хеширование (проверку) старой папки (если не производит сам - помогите ему сделать это), и будет докачивать только те серии которых у вас ещё нет. Старые серии при этом не удаляются, а продолжают раздаваться!
Eсли вы уже удалили старые серии, то предотвратить повторную закачку старых серий можно, отжав галочку в соответствующих местах при запуске нового торрента. По возможности, желательно не удалять старые серии как можно дольше чтобы релизёр не столько продолжал раздавать старые серии, а смог сконцентрироваться на новых.
pb.wtf



Скачать Убийства по алфавиту через торрент https://i107.fastpic.ru/big/2018/1228/f8/ab7397a17f885df68aaf4dff110fb9f8.jpg Скачать фильм Убийства по алфавиту через торрент бесплантно в хорошем качестве О фильме: В центре внимания сюжета оказывается главный персонаж, известный бельгийский сыщик, который в этот раз постарается разобраться в ... 7.7 10 9
Торрент: Зарегистрирован [2019-01-02 07:32] · скачан: 116 раз
Статус: √ проверено
Размер: 2.4 GB
Как cкачать? Как скачать Убийства по алфавиту через торрент | qTorrent

% Раздел Тема Автор DL S | L
Зарубежные сериалы [ 3.91 GB ] Убийства по алфавиту / The ABC Murders / Сезон: 1 / Серии: 1-3 из 3 [2018 WEB-DL 720p] MVO [AlexFilm] bober100 Скачать
1 | 0
Зарубежные сериалы [ 1.97 GB ] Убийства по алфавиту / The ABC Murders / Сезон: 1 / Серии: 1-3 из 3 [2018 WEB-DLRip] MVO [AlexFilm] bober100 Скачать
1 | 0
Зарубежные сериалы [ 5.75 GB ] Убийства по алфавиту / The ABC Murders / Сезон: 1 / Серии 1-3 из 3 [2018 WEB-DL 1080p] [MVO] killermax2013 Скачать
1 | 0
Зарубежные сериалы [ 2.15 GB ] Убийства по алфавиту / The ABC Murders / Сезон: 1 / Серии: 1-3 из 3 [2018 WEBRip] MVO [NewStudio] bober100 Скачать
1 | 0
Зарубежные сериалы [ 5.44 GB ] Убийства по алфавиту / The ABC Murders / Сезон: 1 / Серии: 1-3 из 3 [2018 WEBRip 1080p] MVO [NewStudio] bober100 Скачать
1 | 0
Зарубежные сериалы [ 2.15 GB ] Убийства по алфавиту / The ABC Murders / Сезон: 1 / Серии 1-3 из 3 [2018 WEBRip] [MVO] killermax2013 Скачать
1 | 0


Последний раз редактировалось: killermax2013 (2019-01-02 07:41), всего редактировалось 2 раз(а)

28-11-2019 20:33  

Отключить всю рекламу на сайте

02-01-2019 07:33 Убийства по алфавиту Скачать торрент  

Upd. Замена на релиз без рекламыpb.wtf



    Дорогой пользователь! Огромная просьба, поблагодарите релизера, оцените раздачу и оставьте свои комментарий, если Вы скачали Убийства по алфавиту через торрент бесплатно! Внесите свою лепту в развитие PiratBit!
    Комментировать посты могут только пользователи прошедшие не сложную регистрацию
    Показать сообщения:    

    Убийства по алфавиту через торрент
    Скачать бесплатно Убийства по алфавиту
    Убийства по алфавиту скачать торрент
    Убийства по алфавиту смотреть онлайн
    Cкачать фильм Убийства по алфавиту бесплатно
    Убийства по алфавиту скачать торрент в хорошем качестве
    Убийства по алфавиту смотреть онлайн бесплатно в хорошем качестве


    Вы не можете начинать темы
    Вы не можете отвечать на сообщения
    Вы не можете редактировать свои сообщения
    Вы не можете удалять свои сообщения
    Вы не можете голосовать в опросах
    Вы не можете прикреплять файлы к сообщениям
    Вы можете скачивать файлы