Ссылка на приватное зеркало нашего сайта всего за 1$. Внимание количество ограничено!!!

2 сезон

iTunes

1 сезон

1

2 сезон

2 сезон

iTunes

1 сезон

RePack

30

Ultimate

ВАЖНО

ИГРА 18+

pack

RePack

MK11
pack

Забери бонус

RePack

jed

!!Акция!!

Alien_Rage

RePack

fifa19

RePack

Assassins Creed: Odyssey

RePack

NEED FOR SPEED™ PAYBACK

4 сезон

9 сезон

Бесстыжие 9 сезон

Все сериалы

все сериалы на PB.wtf

RePack

FAR CRY 5
  

Открытие ведьм / A Discovery of Witches / Сезон: 1 / Серии: 1-8 из 8 (Сара Уокер, Элис Тротон, Сара Уолкер) [2018, Фэнтези, драма, мелодрама, HDTV 720p] MVO [Jaskier] pb.wtf

Открытие ведьм через торрент pb.wtf

Раздают: 2 [ 0 KB/s ]
Размер: 6.34 GB | Добавлен: 2 года назад | Торрент скачан:52 раза
Скачать  

17-09-2018 10:30 Открытие ведьм Скачать торрент  

Открытие ведьм / A Discovery of Witches

Год выпуска: 2018
Страна: США
Жанр: Фэнтези, драма, мелодрама
Продолжительность: ~ 00:45:00
Перевод: Профессиональный (многоголосый закадровый) | Jaskier

Режиссёр: Сара Уокер, Элис Тротон, Сара Уолкер

В ролях:

Мэттью Гуд, Тереза Палмер, Оуэн Тил, Малин Буска, Тревор Ив, Аийша Харт, Джулиан Костов, Нила Аалия, Пино Майелло, Алекс Кингстон

Описание:

История любви на фоне оксфордской академической жизни. Историк Диана Бишоп специализируется на старинных рукописях и однажды обнаруживает в архивах некий манускрипт, связанный с магией. С этих пор жизнь Дианы превращается в кошмар, зато судьба сводит её с обаятельным генетиком Мэттью Клермонтом. Пикантность ситуации заключается в том, что Диана — потомственная ведьма, а Мэттью — вампир.

rating

Качество: HDTV 720p
Формат: MKV

Видео: 1280x640 (16:9) | X264 | ~1822 kbps | 25.000 fps
Аудио 1: AC3, 48,0 КГц, 6 ch, 384 kbps - [RUS]
Аудио 2: AC3, 48,0 КГц, 6 ch, 384 kbps - [ENG]


Реклама: Присутствует звуковая (два раза в начале и конце по 10 сек.)
Переведено и озвучено: студией Jaskier
Общее
Уникальный идентификатор                 : 328363948877453441649084794873053508595 (0xF708989F412F0084A691A4146A44F3F3)
Полное имя                               : G:\Jaskier\A.Discovery.Of.Witches Season 1 (HDTV l 720p l Jaskier)\A.Discovery.Of.Witches.S01E01.HDTV.720p.Jaskier.mkv
Формат                                   : Matroska
Версия формата                           : Version 4 / Version 2
Размер файла                             : 831 Мбайт
Продолжительность                        : 44 м. 51 с.
Общий поток                              : 2592 Кбит/сек
Дата кодирования                         : UTC 2018-09-17 09:30:38
Программа кодирования                    : mkvmerge v19.0.0 ('Brave Captain') 64-bit
Библиотека кодирования                   : libebml v1.3.5 + libmatroska v1.4.8

Видео
Идентификатор                            : 1
Формат                                   : AVC
Формат/Информация                        : Advanced Video Codec
Профиль формата                          : High@L4.1
Настройки формата                        : CABAC / 5 Ref Frames
Параметр CABAC формата                   : Да
Параметр RefFrames формата               : 5 кадров
Идентификатор кодека                     : V_MPEG4/ISO/AVC
Продолжительность                        : 44 м. 51 с.
Битрейт                                  : 1822 Кбит/сек
Ширина                                   : 1280 пикселей
Высота                                   : 640 пикселей
Соотношение сторон                       : 2,000
Режим частоты кадров                     : Постоянный
Частота кадров                           : 25,000 кадров/сек
Цветовое пространство                    : YUV
Субдискретизация насыщенности            : 4:2:0
Битовая глубина                          : 8 бит
Тип развёртки                            : Прогрессивная
Бит/(Пиксели*Кадры)                      : 0.089
Размер потока                            : 584 Мбайт (70%)
Библиотека кодирования                   : x264 core 155 r2901 7d0ff22
Настройки программы                      : cabac=1 / ref=5 / deblock=1:0:0 / analyse=0x3:0x113 / me=hex / subme=8 / psy=1 / psy_rd=1.00:0.00 / mixed_ref=1 / me_range=16 / chroma_me=1 / trellis=2 / 8x8dct=1 / cqm=0 / deadzone=21,11 / fast_pskip=1 / chroma_qp_offset=-2 / threads=12 / lookahead_threads=2 / sliced_threads=0 / nr=0 / decimate=1 / interlaced=0 / bluray_compat=0 / constrained_intra=0 / bframes=3 / b_pyramid=2 / b_adapt=1 / b_bias=0 / direct=3 / weightb=1 / open_gop=0 / weightp=2 / keyint=250 / keyint_min=25 / scenecut=40 / intra_refresh=0 / rc_lookahead=50 / rc=crf / mbtree=1 / crf=18.0 / qcomp=0.60 / qpmin=0 / qpmax=69 / qpstep=4 / ip_ratio=1.40 / aq=1:1.00
Default                                  : Да
Forced                                   : Нет

Аудио #1
Идентификатор                            : 2
Формат                                   : AC-3
Формат/Информация                        : Audio Coding 3
Идентификатор кодека                     : A_AC3
Продолжительность                        : 44 м. 51 с.
Вид битрейта                             : Постоянный
Битрейт                                  : 384 Кбит/сек
Каналы                                   : 6 каналов
Расположение каналов                     : Front: L C R, Side: L R, LFE
Частота                                  : 48,0 КГц
Частота кадров                           : 31,250 кадров/сек (1536 SPF)
Битовая глубина                          : 16 бит
Метод сжатия                             : С потерями
Размер потока                            : 123 Мбайт (15%)
Язык                                     : Russian
ServiceKind/String                       : Complete Main
Default                                  : Да
Forced                                   : Нет

Аудио #2
Идентификатор                            : 3
Формат                                   : AC-3
Формат/Информация                        : Audio Coding 3
Идентификатор кодека                     : A_AC3
Продолжительность                        : 44 м. 51 с.
Вид битрейта                             : Постоянный
Битрейт                                  : 384 Кбит/сек
Каналы                                   : 6 каналов
Расположение каналов                     : Front: L C R, Side: L R, LFE
Частота                                  : 48,0 КГц
Частота кадров                           : 31,250 кадров/сек (1536 SPF)
Битовая глубина                          : 16 бит
Метод сжатия                             : С потерями
Размер потока                            : 123 Мбайт (15%)
Язык                                     : English
ServiceKind/String                       : Complete Main
Default                                  : Нет
Forced                                   : Нет
скриншот  скриншот  скриншот  
Когда раздача ведётся путём добавления новых серий, при каждом добавлении создётся новый торрент. Чтобы начать докачку новой серии, пользователям необходимо сделать следующее:
(1) остановить скачивание,
(2) удалить старый торрент у себя из клиента (старые серии удалять не надо),
(3) скачать новый торрент и запустить его у себя в клиенте вместо старого, при этом указать клиенту путь в старую папку, куда и должно происходить скачивание новых серий.
Ваш клиент при этом должен произвести хеширование (проверку) старой папки (если не производит сам - помогите ему сделать это), и будет докачивать только те серии, которых у вас ещё нет. Старые серии при этом не удаляются, а продолжают раздаваться!
Eсли вы уже удалили старые серии, то предотвратить повторную закачку старых серий можно, отжав галочку в соответсвующих местах при запуске нового торрента. По возможности, желательно не удалять старые серии как можно дольше, чтобы релизёр не столько продолжал раздавать старые серии, а смог сконцентрироваться на новых.
pb.wtf



Скачать Открытие ведьм через торрент http://i103.fastpic.ru/big/2018/0917/21/a498698ba575648f9c07b5937c378021.png Скачать фильм Открытие ведьм через торрент бесплантно в хорошем качестве Описание:История любви на фоне оксфордской академической жизни. Историк Диана Бишоп специализируется на старинных рукописях и однажды ... 10 10 5
Торрент: Зарегистрирован [2018-11-06 04:16] · скачан: 52 раз
Статус: √ проверено
Размер: 6.34 GB
Как cкачать? Как скачать Открытие ведьм через торрент | qTorrent

% Раздел Тема Автор DL S | L
Зарубежные сериалы [ 23.35 GB ] Открытие ведьм / A Discovery of Witches / Сезон: 1 / Серии: 1-8 из 8 [2018 BDRip 1080p] MVO [Lostfilm] bober100 Скачать
1 | 0
Зарубежные сериалы [ 11.71 GB ] Открытие ведьм / A Discovery of Witches / Сезон: 1 / Серии: 1-8 из 8 [2018 WEBRip 1080p] [MVO] killermax2013 Скачать
1 | 0
Зарубежные сериалы [ 12.65 GB ] Открытие ведьм / A Discovery of Witches / Сезон: 1 / Серии: 1-8 из 8 [2018 HDTVRip 1080p] MVO [Good People] bober100 Скачать
1 | 0
Зарубежные сериалы [ 4.37 GB ] Открытие ведьм / A Discovery of Witches / Сезон: 1 / Серии: 1-8 из 8 [2018 WEB-DLRip] [DVO] + [MVO] killermax2013 Скачать
1 | 0
Зарубежные сериалы [ 12.67 GB ] Открытие ведьм / A Discovery of Witches / Сезон: 1 / Серии: 1-8 из 8 [2018 WEB-DL 1080p] [DVO] + [MVO] killermax2013 Скачать
1 | 0
Зарубежные сериалы [ 12.79 GB ] Открытие ведьм / A Discovery of Witches / Сезон: 1 / Серии: 1-8 из 8 [2018 HDTV 1080p] MVO [NewStudio] bober100 Скачать
2 | 0


Последний раз редактировалось: bober100 (2018-11-06 04:16), всего редактировалось 4 раз(а)

28-11-2019 20:33  

Отключить всю рекламу на сайте

17-09-2018 11:20 Открытие ведьм Скачать торрент  

100% сюжет писала телкаpb.wtf



18-09-2018 15:55 Открытие ведьм Скачать торрент  

Risk писал(а):

100% сюжет писала телка

300% что режиссёр Женщина)))pb.wtf



26-09-2018 07:46 Открытие ведьм Скачать торрент  

Risk писал(а):

100% сюжет писала телка

Телки - в твоем городе, а к автору литературного произведения следует относиться с большим пиететом.pb.wtf



30-09-2018 12:10 Открытие ведьм Скачать торрент  

Westerners писал(а):

Risk писал(а):

100% сюжет писала телка

Телки - в твоем городе, а к автору литературного произведения следует относиться с большим пиететом.

чуть прям мутить после вашего поста....pb.wtf



14-10-2018 11:11 Открытие ведьм Скачать торрент  

так цей опус овнище чи ни?pb.wtf



18-10-2018 19:46 Открытие ведьм Скачать торрент  

уже 5 серий вышло.... а здесь 2..pb.wtf



    Дорогой пользователь! Огромная просьба, поблагодарите релизера, оцените раздачу и оставьте свои комментарий, если Вы скачали Открытие ведьм через торрент бесплатно! Внесите свою лепту в развитие PiratBit!
    Комментировать посты могут только пользователи прошедшие не сложную регистрацию
    Показать сообщения:    

    Открытие ведьм через торрент
    Скачать бесплатно Открытие ведьм
    Открытие ведьм скачать торрент
    Открытие ведьм смотреть онлайн
    Cкачать фильм Открытие ведьм бесплатно
    Открытие ведьм скачать торрент в хорошем качестве
    Открытие ведьм смотреть онлайн бесплатно в хорошем качестве


    Вы не можете начинать темы
    Вы не можете отвечать на сообщения
    Вы не можете редактировать свои сообщения
    Вы не можете удалять свои сообщения
    Вы не можете голосовать в опросах
    Вы не можете прикреплять файлы к сообщениям
    Вы можете скачивать файлы