2 сезон

iTunes

1 сезон

1

iTunes

iTunes

iTunes

1 сезон

RePack

30

ИГРА 18+

pack

ВАЖНО

!!Акция!!

Alien_RageХит недели

RePack

MK11
pack

Забери бонус

RePack

jed

!!Акция!!

Alien_Rage

RePack

fifa19

RePack

Assassins Creed: Odyssey

RePack

NEED FOR SPEED™ PAYBACK

4 сезон

9 сезон

Бесстыжие 9 сезон

Все сериалы

все сериалы на PB.wtf

RePack

FAR CRY 5
  

Верь мне / Серий: 1 - 4 из 4 (Ирина Громозда) [2018 г., мелодрама, детектив, WEB-DLRip] pb.wtf

Верь мне через торрент pb.wtf

Размер: 2.54 GB | Добавлен: 1 год 10 мес. назад | Торрент скачан:97 раз
Скачать  

28-12-2018 21:14 Верь мне Скачать торрент  

Верь мне
Год выпуска: 2018

Страна: Украина

Жанр: Мелодрама, детектив

Продолжительность: ~ 00:50:00 серия

Режиссер: Ирина Громозда



В ролях: Екатерина Рябова, Дмитрий Пчела, Вячеслав Довженко, Даниил Лакоза, Ирина Веренич-Островская, Марина Кошкина, Олеся Островская, Евгения Мякенькая, Дмитрий Сарансков, Сергей Комаровский

Описание: Инна Литвиненко с сыном Никитой приезжают в небольшой городок Павловск. Никита недоволен – за последние десять лет это уже четвертый новый город и мама никогда не обьясняет, зачем они все время переезжают. Тем не менее постепенно их жизнь налаживается: они снимают жилье у симпатичной одинокой женщины Таи, Инна находит работу в цветочном магазинчике, а Никита идет в школу и записывается в футбольную секцию. Тая случайно находит среди вещей своей квартирантки паспорт на имя Татьяны Корнеевой с фотографией Инны. И по странному совпадению, в свежей газете Тая видит объявление о том, что некая Татьяна Корнеева разыскивается в связи с открытием наследства. Тая звонит по объявлению...
Доп. информация: Без рекламы, логотипа канала и "всплывающих" надписей
Качество: WEB-DLRip
Формат: AVI
Видео кодек: XviD
Аудио кодек: AC3
Видео: XviD, ~ 1618 Кбит/с, 720x400
Аудио: Русский, AC3, 2 ch, 192 Кбит/с
Видео
Идентификатор : 0
Формат : MPEG-4 Visual
Профиль формата : Advanced Simple@L5
Настройки формата : BVOP1 / Custom Matrix
Параметр BVOP формата : 1
Параметр QPel формата : Нет
Параметр GMC формата : Без точки перехода
Параметр матрицы формата : Выборочная
Идентификатор кодека : XVID
Идентификатор кодека/Подсказка : XviD
Продолжительность : 49 м. 54 с.
Битрейт : 1618 Кбит/сек
Ширина : 720 пикселей
Высота : 400 пикселей
Соотношение сторон : 16:9
Частота кадров : 25,000 кадров/сек
Цветовое пространство : YUV
Субдискретизация насыщенности : 4:2:0
Битовая глубина : 8 бит
Тип развёртки : Прогрессивная
Метод сжатия : С потерями
Бит/(Пиксели*Кадры) : 0.225
Размер потока : 577 Мбайт (89%)
Библиотека кодирования : XviD 73

Аудио
Идентификатор : 1
Формат : AC-3
Формат/Информация : Audio Coding 3
Коммерческое название : Dolby Digital
Идентификатор кодека : 2000
Продолжительность : 49 м. 54 с.
Вид битрейта : Постоянный
Битрейт : 192 Кбит/сек
Каналы : 2 канала
Channel layout : L R
Частота : 48,0 КГц
Частота кадров : 31,250 кадров/сек (1536 SPF)
Битовая глубина : 16 бит
Метод сжатия : С потерями
Размер потока : 68,5 Мбайт (11%)
Выравнивание : Разделение по промежуткам
Продолжительность промежутка : 40 мс. (1,00 видеокадр)
Время предзагрузки промежутка : 500 мс.
ServiceKind/String : Complete Main

скриншот   скриншот   скриншот   скриншот   скриншот  

pb.wtf



Скачать Верь мне через торрент http://pic1.kartinco.top/images/12/q3ezv.jpg Скачать фильм Верь мне через торрент бесплантно в хорошем качестве Описание: Инна Литвиненко с сыном Никитой приезжают в небольшой городок Павловск. Никита недоволен – за последние десять лет это уже ... 10 10 2
Торрент: Зарегистрирован [2018-12-28 21:14] · скачан: 97 раз
Статус: √ проверено
Размер: 2.54 GB
Как cкачать? Как скачать Верь мне через торрент | qTorrent

% Раздел Тема Автор DL S | L
Наши сериалы [ 9.76 GB ] Верь мне / Серии: 1-4 из 4 [2018 Мело WEB-DL 1080p] bober100 Скачать
1 | 0
Наши сериалы [ 2.29 GB ] Верь мне / Серии: 1-4 из 4 [2018 Мело SATRip-AVC] bober100 Скачать
1 | 0

28-11-2019 20:33  

Отключить всю рекламу на сайте

    Дорогой пользователь! Огромная просьба, поблагодарите релизера, оцените раздачу и оставьте свои комментарий, если Вы скачали Верь мне через торрент бесплатно! Внесите свою лепту в развитие PiratBit!
    Комментировать посты могут только пользователи прошедшие не сложную регистрацию
    Показать сообщения:    

    Верь мне через торрент
    Скачать бесплатно Верь мне
    Верь мне скачать торрент
    Верь мне смотреть онлайн
    Cкачать фильм Верь мне бесплатно
    Верь мне скачать торрент в хорошем качестве
    Верь мне смотреть онлайн бесплатно в хорошем качестве


    Вы не можете начинать темы
    Вы не можете отвечать на сообщения
    Вы не можете редактировать свои сообщения
    Вы не можете удалять свои сообщения
    Вы не можете голосовать в опросах
    Вы не можете прикреплять файлы к сообщениям
    Вы можете скачивать файлы